BBC Storyville - A German Life: Goebbels' Secretary Remembers (2019)

Posted By: notbanned
720p (HD) / HDTV IMDb
BBC Storyville - A German Life: Goebbels' Secretary Remembers (2019)

BBC Storyville - A German Life: Goebbels' Secretary Remembers (2019)
HDTV | 1280x720 | .MKV/AVC @ 2549 Kbps | 1 h 21 min | 1.52 GiB
Audio: English AAC 125 kbps, 2 channels | Subs: English
Genre: Documentary

The extraordinary story of a woman living through traumatic times raises profound questions about the moral choices and personal sacrifices that one is faced with when confronted by evil. Reflecting back on her life, Brunhilde Pomsel makes it clear that the dangers that led to the rise of fascism have not been overcome. 'So I joined the party,' she recalls. 'Why shouldn't I? Everyone was doing it.'

General
Unique ID : 103447797765473865690969252228140346606 (0x4DD3523636DA6656BDCF94D18B37ACEE)
Complete name : BBC.Storyville.2019.A.German.Life.Goebbels.Secretary.Remembers.720p.mkv
Format : Matroska
Format version : Version 4 / Version 2
File size : 1.52 GiB
Duration : 1 h 21 min
Overall bit rate : 2 676 kb/s

Video
ID : 1
Format : AVC
Format/Info : Advanced Video Codec
Format profile : High@L3.1
Format settings, CABAC : Yes
Format settings, ReFrames : 4 frames
Codec ID : V_MPEG4/ISO/AVC
Duration : 1 h 21 min
Bit rate : 2 549 kb/s
Width : 1 280 pixels
Height : 720 pixels
Display aspect ratio : 16:9
Frame rate mode : Constant
Frame rate : 25.000 FPS
Color space : YUV
Chroma subsampling : 4:2:0
Bit depth : 8 bits
Scan type : Progressive
Bits/(Pixel*Frame) : 0.111
Stream size : 1.45 GiB (95%)
Encoding settings : cabac=1 / ref=4 / deblock=1:0:0 / analyse=0x3:0x113 / me=umh / subme=9 / psy=1 / psy_rd=1.00:0.00 / mixed_ref=1 / me_range=24 / chroma_me=1 / trellis=1 / 8x8dct=1 / cqm=0 / deadzone=21,11 / fast_pskip=0 / chroma_qp_offset=-2 / threads=18 / lookahead_threads=2 / sliced_threads=0 / nr=0 / decimate=1 / interlaced=0 / bluray_compat=0 / constrained_intra=0 / bframes=6 / b_pyramid=2 / b_adapt=2 / b_bias=0 / direct=1 / weightb=1 / open_gop=0 / weightp=2 / keyint=250 / keyint_min=25 / scenecut=40 / intra_refresh=0 / rc_lookahead=40 / rc=crf / mbtree=1 / crf=20.0 / qcomp=0.60 / qpmin=0 / qpmax=69 / qpstep=4 / ip_ratio=1.40 / aq=1:1.00
Language : English
Default : Yes
Forced : No
Color range : Limited
Color primaries : BT.709
Transfer characteristics : BT.709
Matrix coefficients : BT.709

Audio
ID : 2
Format : AAC
Format/Info : Advanced Audio Codec
Format profile : LC
Codec ID : A_AAC
Duration : 1 h 21 min
Bit rate : 125 kb/s
Channel(s) : 2 channels
Channel positions : Front: L R
Sampling rate : 48.0 kHz
Frame rate : 46.875 FPS (1024 spf)
Compression mode : Lossy
Delay relative to video : 9 ms
Stream size : 72.7 MiB (5%)
Language : English
Default : Yes
Forced : No

Text
ID : 3
Format : UTF-8
Codec ID : S_TEXT/UTF8
Codec ID/Info : UTF-8 Plain Text
Duration : 1 h 15 min
Bit rate : 4 b/s
Count of elements : 93
Stream size : 2.71 KiB (0%)
Language : English
Default : No
Forced : No


Screenshots:

BBC Storyville - A German Life: Goebbels' Secretary Remembers (2019)

BBC Storyville - A German Life: Goebbels' Secretary Remembers (2019)

BBC Storyville - A German Life: Goebbels' Secretary Remembers (2019)

BBC Storyville - A German Life: Goebbels' Secretary Remembers (2019)