Tags
Language
Tags

BBC - The Man who Shot the Great War (2014)

Posted By:
720p (HD) / HDTV IMDb
BBC - The Man who Shot the Great War (2014)

BBC - The Man who Shot the Great War (2014)
HDTV | 1280x720 | .MKV/AVC @ 2224 Kbps | 59 min 3 s | 995 MiB
Audio: English AAC 128 kbps, 2 channels | Subs: English
Genre: Documentary

Revealing for the first time what has been described as 'the photographic discovery of the century', this documentary uncovers the remarkable story of the Belfast soldier who took his camera to war in 1915 and how his experiences were to have a dramatic and unexpected outcome many years later.

General
Unique ID : 211371707133469464895072427960644302093 (0x9F04B5C3A38270FE98D32C2BA79E750D)
Complete name : BBC.The.Man.Who.Shot.the.Great.War.720p.mkv
Format : Matroska
Format version : Version 4 / Version 2
File size : 995 MiB
Duration : 59 min 3 s
Overall bit rate : 2 354 kb/s

Video
ID : 1
Format : AVC
Format/Info : Advanced Video Codec
Format profile : High@L4.1
Format settings, CABAC : Yes
Format settings, ReFrames : 6 frames
Codec ID : V_MPEG4/ISO/AVC
Duration : 59 min 3 s
Bit rate : 2 224 kb/s
Width : 1 280 pixels
Height : 720 pixels
Display aspect ratio : 16:9
Frame rate mode : Constant
Frame rate : 25.000 FPS
Color space : YUV
Chroma subsampling : 4:2:0
Bit depth : 8 bits
Scan type : Progressive
Bits/(Pixel*Frame) : 0.097
Stream size : 939 MiB (94%)
Encoding settings : cabac=1 / ref=6 / deblock=1:0:0 / analyse=0x3:0x113 / me=umh / subme=9 / psy=1 / psy_rd=1.00:0.00 / mixed_ref=1 / me_range=24 / chroma_me=1 / trellis=1 / 8x8dct=1 / cqm=0 / deadzone=21,11 / fast_pskip=0 / chroma_qp_offset=-2 / threads=3 / lookahead_threads=1 / sliced_threads=0 / nr=0 / decimate=1 / interlaced=0 / bluray_compat=0 / constrained_intra=0 / bframes=3 / b_pyramid=2 / b_adapt=1 / b_bias=0 / direct=1 / weightb=1 / open_gop=0 / weightp=2 / keyint=250 / keyint_min=25 / scenecut=40 / intra_refresh=0 / rc_lookahead=40 / rc=crf / mbtree=1 / crf=19.0 / qcomp=0.60 / qpmin=0 / qpmax=69 / qpstep=4 / ip_ratio=1.40 / aq=1:1.00
Language : English
Default : Yes
Forced : No

Audio
ID : 2
Format : AAC
Format/Info : Advanced Audio Codec
Format profile : LC
Codec ID : A_AAC
Duration : 59 min 3 s
Bit rate : 128 kb/s
Channel(s) : 2 channels
Channel positions : Front: L R
Sampling rate : 48.0 kHz
Frame rate : 46.875 FPS (1024 spf)
Compression mode : Lossy
Delay relative to video : 9 ms
Stream size : 54.1 MiB (5%)
Language : English
Default : Yes
Forced : No

Text
ID : 3
Format : UTF-8
Codec ID : S_TEXT/UTF8
Codec ID/Info : UTF-8 Plain Text
Duration : 57 min 36 s
Bit rate : 76 b/s
Count of elements : 697
Stream size : 32.2 KiB (0%)
Language : English
Default : No
Forced : No


Screenshots:

BBC - The Man who Shot the Great War (2014)

BBC - The Man who Shot the Great War (2014)

BBC - The Man who Shot the Great War (2014)

BBC - The Man who Shot the Great War (2014)