BBC This World - The Bin Laden Conspiracy (2015)

Posted By: notbanned
BBC This World - The Bin Laden Conspiracy (2015)

BBC This World - The Bin Laden Conspiracy (2015)
HDTV | 1024x576 | .MKV/AVC @ 1434 Kbps | 29 min 15 s | 328 MiB
Audio: English AAC 129 kbps, 2 channels | Subs: None
Genre: Documentary

When an elite team of American special forces stormed a compound in Pakistan and killed the world's most wanted terror target it was the high point of Barack Obama's presidency. But as more and more information emerges, the doubts about the official account of Osama Bin Laden's death have been raised - to the point where veteran investigative journalist Seymour Hersh has now alleged that the whole story was fabricated. For the BBC's award winning This World strand, Jane Corbin examines the evidence for this supposed conspiracy and uses a treasure trove of newly released documents to reconstruct Bin Laden's life in his secret compound.


General
Unique ID : 228650321696842281118418547424707627485 (0xAC04733C0BA8D5138DB6BF335B1249DD)
Complete name : BBC.This.World.2015.The.Bin.Laden.Conspiracy.576p.HDTV.mkv
Format : Matroska
Format version : Version 4 / Version 2
File size : 328 MiB
Duration : 29 min 15 s
Overall bit rate : 1 566 kb/s

Video
ID : 1
Format : AVC
Format/Info : Advanced Video Codec
Format profile : High@L3.1
Format settings, CABAC : Yes
Format settings, ReFrames : 4 frames
Codec ID : V_MPEG4/ISO/AVC
Duration : 29 min 15 s
Bit rate : 1 434 kb/s
Width : 1 024 pixels
Height : 576 pixels
Display aspect ratio : 16:9
Frame rate mode : Constant
Frame rate : 25.000 FPS
Color space : YUV
Chroma subsampling : 4:2:0
Bit depth : 8 bits
Scan type : Progressive
Bits/(Pixel*Frame) : 0.097
Stream size : 300 MiB (92%)
Writing library : x264 core 146 r2538 121396c
Encoding settings : cabac=1 / ref=4 / deblock=1:0:0 / analyse=0x3:0x113 / me=umh / subme=7 / psy=1 / psy_rd=1.00:0.00 / mixed_ref=1 / me_range=16 / chroma_me=1 / trellis=1 / 8x8dct=1 / cqm=0 / deadzone=21,11 / fast_pskip=0 / chroma_qp_offset=-2 / threads=3 / lookahead_threads=1 / sliced_threads=0 / nr=0 / decimate=1 / interlaced=0 / bluray_compat=0 / constrained_intra=0 / bframes=3 / b_pyramid=2 / b_adapt=1 / b_bias=0 / direct=1 / weightb=1 / open_gop=0 / weightp=2 / keyint=250 / keyint_min=25 / scenecut=40 / intra_refresh=0 / rc_lookahead=40 / rc=crf / mbtree=1 / crf=21.0 / qcomp=0.60 / qpmin=0 / qpmax=69 / qpstep=4 / ip_ratio=1.40 / aq=1:1.00
Language : English
Default : Yes
Forced : No

Audio
ID : 2
Format : AAC
Format/Info : Advanced Audio Codec
Format profile : LC
Codec ID : A_AAC
Duration : 29 min 14 s
Bit rate : 129 kb/s
Channel(s) : 2 channels
Channel positions : Front: L R
Sampling rate : 48.0 kHz
Frame rate : 46.875 FPS (1024 spf)
Compression mode : Lossy
Delay relative to video : 9 ms
Stream size : 27.0 MiB (8%)
Language : English
Default : Yes
Forced : No

Text
ID : 3
Format : UTF-8
Codec ID : S_TEXT/UTF8
Codec ID/Info : UTF-8 Plain Text
Duration : 28 min 39 s
Bit rate : 109 b/s
Count of elements : 469
Stream size : 23.1 KiB (0%)
Language : English
Default : No
Forced : No


Screenshots:

BBC This World - The Bin Laden Conspiracy (2015)

BBC This World - The Bin Laden Conspiracy (2015)

BBC This World - The Bin Laden Conspiracy (2015)

BBC This World - The Bin Laden Conspiracy (2015)