BBC - Venus Uncovered: Ancient Goddess of Love (2017)

Posted By: notbanned
BBC - Venus Uncovered: Ancient Goddess of Love (2017)

BBC - Venus Uncovered: Ancient Goddess of Love (2017)
HDTV | 1280x720 | .MKV/AVC @ 1999 Kbps | 58 min 54 s | 900 MiB
Audio: English AAC 135 kbps, 2 channels | Subs: English
Genre: Documentary

Bettany Hughes explores Venus - goddess of love - discovering her surprising roots and modern relevance. Beginning in Cyprus, the goddess's mythical birthplace, Bettany decodes Venus's relationship to the Greek goddess Aphrodite. She meets experts who reveal the mysterious and obscure ways this ancient goddess was imagined and worshipped, and visits the sites where the real women and men of the Bronze Age adored her as 'greater than a god'. Bettany looks into the goddess's own love life to see that - even for her - tangling with another was often bittersweet. Through ancient art, evocative myth, exciting archaeological revelations and philosophical explorations, Bettany reveals how this immortal goddess endures through to the 21st century, and what her story and journey through time reveals about what matters to us as humans.


General
Unique ID : 194218800568938320561339578634654317127 (0x921D2E2D3E78B84A85F4F67ED805FA47)
Complete name : BBC.Venus.Uncovered.Ancient.Goddess.of.Love.720p.mkv
Format : Matroska
Format version : Version 4 / Version 2
File size : 900 MiB
Duration : 58 min 54 s
Overall bit rate : 2 136 kb/s

Video
ID : 1
Format : AVC
Format/Info : Advanced Video Codec
Format profile : High@L3.1
Format settings, CABAC : Yes
Format settings, ReFrames : 4 frames
Codec ID : V_MPEG4/ISO/AVC
Duration : 58 min 54 s
Bit rate : 1 999 kb/s
Width : 1 280 pixels
Height : 720 pixels
Display aspect ratio : 16:9
Frame rate mode : Constant
Frame rate : 25.000 FPS
Color space : YUV
Chroma subsampling : 4:2:0
Bit depth : 8 bits
Scan type : Progressive
Bits/(Pixel*Frame) : 0.087
Stream size : 842 MiB (94%)
Encoding settings : cabac=1 / ref=3 / deblock=1:0:0 / analyse=0x3:0x113 / me=umh / subme=9 / psy=1 / psy_rd=1.00:0.00 / mixed_ref=1 / me_range=24 / chroma_me=1 / trellis=1 / 8x8dct=1 / cqm=0 / deadzone=21,11 / fast_pskip=0 / chroma_qp_offset=-2 / threads=3 / lookahead_threads=1 / sliced_threads=0 / nr=0 / decimate=1 / interlaced=0 / bluray_compat=0 / constrained_intra=0 / bframes=6 / b_pyramid=2 / b_adapt=2 / b_bias=0 / direct=1 / weightb=1 / open_gop=0 / weightp=2 / keyint=250 / keyint_min=25 / scenecut=40 / intra_refresh=0 / rc_lookahead=40 / rc=crf / mbtree=1 / crf=19.0 / qcomp=0.60 / qpmin=0 / qpmax=69 / qpstep=4 / ip_ratio=1.40 / aq=1:1.00
Language : English
Default : Yes
Forced : No
Color range : Limited
Color primaries : BT.709
Transfer characteristics : BT.709
Matrix coefficients : BT.709

Audio
ID : 2
Format : AAC
Format/Info : Advanced Audio Codec
Format profile : LC
Codec ID : A_AAC
Duration : 58 min 54 s
Bit rate : 135 kb/s
Channel(s) : 2 channels
Channel positions : Front: L R
Sampling rate : 48.0 kHz
Frame rate : 46.875 FPS (1024 spf)
Compression mode : Lossy
Delay relative to video : 9 ms
Stream size : 57.0 MiB (6%)
Language : English
Default : Yes
Forced : No

Text
ID : 3
Format : UTF-8
Codec ID : S_TEXT/UTF8
Codec ID/Info : UTF-8 Plain Text
Duration : 58 min 15 s
Bit rate : 87 b/s
Count of elements : 798
Stream size : 37.5 KiB (0%)
Language : English
Default : No
Forced : No


Screenshots:

BBC - Venus Uncovered: Ancient Goddess of Love (2017)

BBC - Venus Uncovered: Ancient Goddess of Love (2017)

BBC - Venus Uncovered: Ancient Goddess of Love (2017)

BBC - Venus Uncovered: Ancient Goddess of Love (2017)