BBC - Drugsland: Series 1 (2017)

Posted By: notbanned
720p (HD) / HDTV
BBC - Drugsland: Series 1 (2017)

BBC - Drugsland: Series 1 (2017)
HDTV | 1280x720 | .MP4/AVC @ 2509 Kbps | 4x~58min | 4.41 GiB
Audio: English AAC 157 kbps, 2 channels | Subs: English
Genre: Documentary

Observational documentary series going deep into the world of drugs, as seen through of the eyes of professionals, users and dealers in Bristol.
Part 1: Crack Alley
Sgt Green and PC Spence have a known prolific street dealer in their sights. But the cards are stacked against them in bringing him down.

Part 2: Heroin Love Story
This episode follows the lives of a couple united in love and a shared heroin habit. Jo and Rich live and sleep in a multistorey car park in central Bristol. They make up to a thousand pounds a week begging, but they spend virtually all of it on feeding their voracious drug habits.

Part 3: Dying to Get Clean
From the chaos of a burglar who steals every night to the dangers facing street sex workers, a mum in long-term recovery looking after her daughter and the user going into an assisted detox unit, the challenge of breaking free from the shackles of addiction is daunting. And for most, the stakes could not be higher - get clean or face death.

Part 4: The Fix
Bristol West MP Thangam Debbonaire, substance-misuse experts and some recreational drug takers question whether the 1971 Misuse of Drugs Act is still fit for purpose.

General
Complete name : BBC.dgsland.Series.1.1of4.Crack.Alley.720p.mp4
Format : MPEG-4
Format profile : Base Media
Codec ID : isom (isom)
File size : 1.10 GiB
Duration : 58 min 56 s
Overall bit rate mode : Variable
Overall bit rate : 2 669 kb/s

Video
ID : 1
Format : AVC
Format/Info : Advanced Video Codec
Format profile : High@L4.1
Format settings, CABAC : No
Format settings, ReFrames : 2 frames
Format settings, GOP : M=1, N=12
Codec ID : avc1
Codec ID/Info : Advanced Video Coding
Duration : 58 min 56 s
Bit rate : 2 509 kb/s
Maximum bit rate : 9 483 kb/s
Width : 1 280 pixels
Height : 720 pixels
Display aspect ratio : 16:9
Frame rate mode : Constant
Frame rate : 24.000 FPS
Color space : YUV
Chroma subsampling : 4:2:0
Bit depth : 8 bits
Scan type : Progressive
Bits/(Pixel*Frame) : 0.113
Stream size : 1.03 GiB (94%)
Encoded date : UTC 2017-12-06 18:20:35
Tagged date : UTC 2017-12-06 22:06:26

Audio
ID : 2
Format : AAC
Format/Info : Advanced Audio Codec
Format profile : LC
Codec ID : 40
Duration : 58 min 56 s
Bit rate mode : Variable
Bit rate : 157 kb/s
Maximum bit rate : 249 kb/s
Channel(s) : 2 channels
Channel positions : Front: L R
Sampling rate : 48.0 kHz
Frame rate : 46.875 FPS (1024 spf)
Compression mode : Lossy
Stream size : 66.4 MiB (6%)
Encoded date : UTC 2017-12-06 22:06:19
Tagged date : UTC 2017-12-06 22:06:26

Text
ID : 3
Format : Timed Text
Codec ID : tx3g
Duration : 58 min 23 s
Bit rate mode : Variable
Bit rate : 205 b/s
Stream size : 87.9 KiB (0%)
Forced : No
Encoded date : UTC 2017-12-06 22:06:26
Tagged date : UTC 2017-12-06 22:06:26


Screenshots:

BBC - Drugsland: Series 1 (2017)

BBC - Drugsland: Series 1 (2017)

BBC - Drugsland: Series 1 (2017)

BBC - Drugsland: Series 1 (2017)