BBC: The Celts (1987)

Posted By: Polik88
BBC: The Celts (1987)

BBC: The Celts (1987)
DVDRip | English | AVI/XVID 29.970 fps 898 Kbps | 624x464 | MP3 64.0 Kbps 48.0 khz | 6x54mn | 6x380 MB
Genre: Documentary

This TV documentary series was produced by the BBC back in 1986 and is about the people known as The Celts who lived in many areas of Europe around 2000 years ago.
General
Complete name : The Celts Pt. 1.avi
Format : AVI
Format/Info : Audio Video Interleave
File size : 380 MiB
Duration : 54mn 21s
Overall bit rate : 976 Kbps
Writing application : Lavf52.17.0

Video
ID : 0
Format : MPEG-4 Visual
Format profile : Simple@L3
Format settings, BVOP : No
Format settings, QPel : No
Format settings, GMC : No warppoints
Format settings, Matrix : Default (H.263)
Codec ID : XVID
Codec ID/Hint : XviD
Duration : 54mn 21s
Bit rate : 898 Kbps
Width : 624 pixels
Height : 464 pixels
Display aspect ratio : 4:3
Frame rate : 29.970 fps
Color space : YUV
Chroma subsampling : 4:2:0
Bit depth : 8 bits
Scan type : Progressive
Compression mode : Lossy
Bits/(Pixel*Frame) : 0.104
Stream size : 349 MiB (92%)
Writing library : XviD 1.1.2 (UTC 2006-11-01)

Audio
ID : 1
Format : MPEG Audio
Format version : Version 1
Format profile : Layer 3
Mode : Joint stereo
Mode extension : MS Stereo
Codec ID : 55
Codec ID/Hint : MP3
Duration : 54mn 21s
Bit rate mode : Constant
Bit rate : 64.0 Kbps
Channel(s) : 2 channels
Sampling rate : 48.0 KHz
Compression mode : Lossy
Stream size : 24.9 MiB (7%)
Alignment : Aligned on interleaves
Interleave, duration : 24 ms (0.72 video frame)
Writing library : LAME3.97

Screenshots

BBC: The Celts (1987)

BBC: The Celts (1987)

BBC: The Celts (1987)

no mirrors please, Follow The Rules
Visit Polik88 Blog Here
no password