Bad Santa 2 (2016) [UNRATED]

Posted By: JohnSmith
Bad Santa 2 (2016) [UNRATED]

Bad Santa 2 (2016)
BDRip | MKV / AVC@760 kb/s | 720x390 | 1h 34mn | 596 MB | English: AAC, 116 kb/s (2 ch)
BRRip | MKV / AVC@1609 kb/s | 720x384 | 1h 34mn | 1.36 GB | English: AC3, 448 kb/s (6 ch)
BDRip 1080p | MKV / AVC@10 Mb/s | 1920x1040 | 1h 34mn | 7.65 GB | English: DTS, 1509 kb/s (6 ch)
BRRip 720p | MKV / HEVC@1928 kb/s | 1280x696 | 1h 34mn | 2.32 GB | English: DTS, 1509 kb/s (6 ch)
BRRip 1080p | MKV / AVC@2986 kb/s | 1920x1040 | 1h 34mn | 2.98 GB | English: DTS, 1509 kb/s (6 ch)
Genre: Comedy | Crime | Drama

Fueled by cheap whiskey, greed and hatred, Willie teams up once again with his angry little sidekick, Marcus, to knock off a Chicago charity on Christmas Eve.




General
Unique ID : 235267492865137479404473557492715300963 (0xB0FEDEF6402F7CFCA38A110F9E352863)
Complete name : D:\Downloads\Bad.Santa.2.2016.UNRATED.BDRip.x264-DRONES[rarbg]\Bad.Santa.2.2016.UNRATED.BDRip.x264-DRONES.mkv
Format : Matroska
Format version : Version 4 / Version 2
File size : 596 MiB
Duration : 1 h 34 min
Overall bit rate : 878 kb/s
Encoded date : UTC 2017-02-08 06:22:45
Writing application : mkvmerge v8.3.0 ('Over the Horizon') 64bit
Writing library : libebml v1.3.1 + libmatroska v1.4.2

Video
ID : 1
Format : AVC
Format/Info : Advanced Video Codec
Format profile : High@L3.1
Format settings, CABAC : Yes
Format settings, ReFrames : 5 frames
Codec ID : V_MPEG4/ISO/AVC
Duration : 1 h 34 min
Bit rate : 760 kb/s
Width : 720 pixels
Height : 390 pixels
Display aspect ratio : 1.85:1
Frame rate mode : Constant
Frame rate : 23.976 FPS
Color space : YUV
Chroma subsampling : 4:2:0
Bit depth : 8 bits
Scan type : Progressive
Bits/(Pixel*Frame) : 0.113
Stream size : 516 MiB (87%)
Title : X264
Writing library : x264 core 148 r2744 b97ae06
Encoding settings : cabac=1 / ref=5 / deblock=1:-2:-2 / analyse=0x3:0x113 / me=hex / subme=8 / psy=1 / psy_rd=0.90:0.00 / mixed_ref=1 / me_range=16 / chroma_me=1 / trellis=2 / 8x8dct=1 / cqm=0 / deadzone=21,11 / fast_pskip=1 / chroma_qp_offset=-2 / threads=12 / lookahead_threads=2 / sliced_threads=0 / nr=0 / decimate=1 / interlaced=0 / bluray_compat=0 / constrained_intra=0 / bframes=3 / b_pyramid=2 / b_adapt=1 / b_bias=0 / direct=3 / weightb=1 / open_gop=0 / weightp=2 / keyint=250 / keyint_min=23 / scenecut=40 / intra_refresh=0 / rc_lookahead=50 / rc=crf / mbtree=1 / crf=19.0 / qcomp=0.60 / qpmin=0 / qpmax=69 / qpstep=4 / ip_ratio=1.40 / aq=1:1.00
Language : English
Default : Yes
Forced : No
Color range : Limited
Matrix coefficients : BT.709

Audio
ID : 2
Format : AAC
Format/Info : Advanced Audio Codec
Format profile : LC
Codec ID : A_AAC
Duration : 1 h 34 min
Bit rate : 116 kb/s
Channel(s) : 2 channels
Channel positions : Front: L R
Sampling rate : 48.0 kHz
Frame rate : 46.875 FPS (1024 spf)
Compression mode : Lossy
Stream size : 78.4 MiB (13%)
Language : English
Default : Yes
Forced : No

Menu
00:00:00.000 : en:00:00:00.000
00:05:53.228 : en:00:05:53.228
00:11:00.743 : en:00:11:00.743
00:16:22.857 : en:00:16:22.857
00:20:14.213 : en:00:20:14.213
00:25:34.700 : en:00:25:34.700
00:29:40.445 : en:00:29:40.445
00:33:51.696 : en:00:33:51.696
00:36:57.132 : en:00:36:57.132
00:41:20.019 : en:00:41:20.019
00:44:49.812 : en:00:44:49.812
00:52:09.334 : en:00:52:09.334
01:00:33.546 : en:01:00:33.546
01:05:54.158 : en:01:05:54.158
01:13:17.977 : en:01:13:17.977
01:17:48.497 : en:01:17:48.497
01:21:58.205 : en:01:21:58.205
01:25:43.221 : en:01:25:43.221





General
Unique ID : 244726322947337579711834480101011908974 (0xB81C934A6D24C5B680D94F171C8E696E)
Complete name : A:\Bad.Santa.2.2016.UNRATED.BRRip.mkv
Format : Matroska
Format version : Version 4 / Version 2
File size : 1.36 GiB
Duration : 1 h 34 min
Overall bit rate : 2 059 kb/s
Encoded date : UTC 2017-02-08 07:12:03
Writing application : mkvmerge v8.3.0 ('Over the Horizon') 64bit
Writing library : libebml v1.3.1 + libmatroska v1.4.2

Video
ID : 1
Format : AVC
Format/Info : Advanced Video Codec
Format profile : Baseline@L3.1
Format settings, CABAC : No
Format settings, ReFrames : 1 frame
Codec ID : V_MPEG4/ISO/AVC
Duration : 1 h 34 min
Bit rate : 1 609 kb/s
Width : 720 pixels
Height : 384 pixels
Display aspect ratio : 1.85:1
Frame rate mode : Constant
Frame rate : 23.976 (24000/1001) FPS
Color space : YUV
Chroma subsampling : 4:2:0
Bit depth : 8 bits
Scan type : Progressive
Bits/(Pixel*Frame) : 0.243
Stream size : 1.07 GiB (78%)
Writing library : x264 core 148 r2708 86b7198
Encoding settings : cabac=0 / ref=1 / deblock=1:0:0 / analyse=0x1:0x111 / me=hex / subme=2 / psy=1 / psy_rd=1.00:0.00 / mixed_ref=0 / me_range=16 / chroma_me=1 / trellis=0 / 8x8dct=0 / cqm=0 / deadzone=21,11 / fast_pskip=1 / chroma_qp_offset=0 / threads=12 / lookahead_threads=3 / sliced_threads=0 / nr=0 / decimate=1 / interlaced=0 / bluray_compat=0 / constrained_intra=0 / bframes=0 / weightp=0 / keyint=240 / keyint_min=24 / scenecut=40 / intra_refresh=0 / rc_lookahead=10 / rc=2pass / mbtree=1 / bitrate=1609 / ratetol=1.0 / qcomp=0.60 / qpmin=0 / qpmax=69 / qpstep=4 / cplxblur=20.0 / qblur=0.5 / vbv_maxrate=14000 / vbv_bufsize=14000 / nal_hrd=none / filler=0 / ip_ratio=1.40 / aq=1:1.00
Default : Yes
Forced : No
Color range : Limited
Color primaries : BT.709
Transfer characteristics : BT.709
Matrix coefficients : BT.709

Audio
ID : 2
Format : AC-3
Format/Info : Audio Coding 3
Mode extension : CM (complete main)
Format settings, Endianness : Big
Codec ID : A_AC3
Duration : 1 h 34 min
Bit rate mode : Constant
Bit rate : 448 kb/s
Channel(s) : 6 channels
Channel positions : Front: L C R, Side: L R, LFE
Sampling rate : 48.0 kHz
Frame rate : 31.250 FPS (1536 spf)
Compression mode : Lossy
Delay relative to video : -5 ms
Stream size : 304 MiB (22%)
Title : Surround
Language : English
Default : Yes
Forced : No





General
Unique ID : 219080619844842073155403563651662516470 (0xA4D16481651974F8979884CCC4C690F6)
Complete name : A:\Bad.Santa.2.2016.UNRATED.1080p.BluRay.x264-DRONES.mkv
Format : Matroska
Format version : Version 4 / Version 2
File size : 7.65 GiB
Duration : 1 h 34 min
Overall bit rate : 11.5 Mb/s
Encoded date : UTC 2017-02-08 08:02:40
Writing application : mkvmerge v8.3.0 ('Over the Horizon') 64bit
Writing library : libebml v1.3.1 + libmatroska v1.4.2

Video
ID : 1
Format : AVC
Format/Info : Advanced Video Codec
Format profile : High@L4.1
Format settings, CABAC : Yes
Format settings, ReFrames : 4 frames
Codec ID : V_MPEG4/ISO/AVC
Duration : 1 h 34 min
Bit rate : 10.0 Mb/s
Width : 1 920 pixels
Height : 1 040 pixels
Display aspect ratio : 1.85:1
Frame rate mode : Constant
Frame rate : 23.976 FPS
Color space : YUV
Chroma subsampling : 4:2:0
Bit depth : 8 bits
Scan type : Progressive
Bits/(Pixel*Frame) : 0.210
Stream size : 6.65 GiB (87%)
Writing library : x264 core 148 r2744 b97ae06
Encoding settings : cabac=1 / ref=4 / deblock=1:0:0 / analyse=0x3:0x133 / me=umh / subme=7 / psy=1 / psy_rd=1.00:0.00 / mixed_ref=1 / me_range=16 / chroma_me=1 / trellis=1 / 8x8dct=1 / cqm=0 / deadzone=21,11 / fast_pskip=0 / chroma_qp_offset=-2 / threads=18 / lookahead_threads=3 / sliced_threads=0 / nr=0 / decimate=1 / interlaced=0 / bluray_compat=0 / constrained_intra=0 / bframes=3 / b_pyramid=2 / b_adapt=1 / b_bias=0 / direct=1 / weightb=1 / open_gop=0 / weightp=2 / keyint=250 / keyint_min=23 / scenecut=40 / intra_refresh=0 / rc_lookahead=40 / rc=2pass / mbtree=1 / bitrate=10041 / ratetol=1.0 / qcomp=0.60 / qpmin=0 / qpmax=69 / qpstep=4 / cplxblur=20.0 / qblur=0.5 / ip_ratio=1.40 / aq=1:1.00
Language : English
Default : Yes
Forced : No

Audio
ID : 2
Format : DTS
Format/Info : Digital Theater Systems
Mode : 16
Format settings, Endianness : Big
Codec ID : A_DTS
Duration : 1 h 34 min
Bit rate mode : Constant
Bit rate : 1 509 kb/s
Channel(s) : 6 channels
Channel positions : Front: L C R, Side: L R, LFE
Sampling rate : 48.0 kHz
Frame rate : 93.750 FPS (512 spf)
Bit depth : 24 bits
Compression mode : Lossy
Stream size : 1 024 MiB (13%)
Language : English
Default : Yes
Forced : No

Menu
00:00:00.000 : en:00:00:00.000
00:05:53.228 : en:00:05:53.228
00:11:00.743 : en:00:11:00.743
00:16:22.857 : en:00:16:22.857
00:20:14.213 : en:00:20:14.213
00:25:34.700 : en:00:25:34.700
00:29:40.445 : en:00:29:40.445
00:33:51.696 : en:00:33:51.696
00:36:57.132 : en:00:36:57.132
00:41:20.019 : en:00:41:20.019
00:44:49.812 : en:00:44:49.812
00:52:09.334 : en:00:52:09.334
01:00:33.546 : en:01:00:33.546
01:05:54.158 : en:01:05:54.158
01:13:17.977 : en:01:13:17.977
01:17:48.497 : en:01:17:48.497
01:21:58.205 : en:01:21:58.205
01:25:43.221 : en:01:25:43.221





General
Unique ID : 217052316487058696490710253534116983285 (0xA34AC16DD42AD72EA37DDB19FBEA31F5)
Complete name : G:\Bad.Santa.2.2016.UNRATED.720p.BRRip.HEVC.mkv
Format : Matroska
Format version : Version 4 / Version 2
File size : 2.32 GiB
Duration : 1h 34mn
Overall bit rate : 3 507 Kbps
Encoded date : UTC 2017-02-08 07:44:59
Writing application : mkvmerge v8.3.0 ('Over the Horizon') 64bit
Writing library : libebml v1.3.1 + libmatroska v1.4.2

Video
ID : 1
Format : HEVC
Format/Info : High Efficiency Video Coding
Format profile : Main@L3.1@Main
Codec ID : V_MPEGH/ISO/HEVC
Duration : 1h 34mn
Bit rate : 1 928 Kbps
Width : 1 280 pixels
Height : 696 pixels
Display aspect ratio : 1.85:1
Frame rate mode : Constant
Frame rate : 23.976 fps
Color space : YUV
Chroma subsampling : 4:2:0
Bit depth : 8 bits
Bits/(Pixel*Frame) : 0.090
Stream size : 1.28 GiB (55%)
Writing library : x265 2.1:[Windows][GCC 5.4.0][64 bit] 8bit
Encoding settings : wpp / ctu=32 / min-cu-size=8 / max-tu-size=32 / tu-intra-depth=1 / tu-inter-depth=1 / me=1 / subme=1 / merange=57 / no-rect / no-amp / max-merge=2 / temporal-mvp / early-skip / rskip / rdpenalty=0 / no-tskip / no-tskip-fast / strong-intra-smoothing / no-lossless / no-cu-lossless / no-constrained-intra / fast-intra / open-gop / no-temporal-layers / interlace=0 / keyint=240 / min-keyint=24 / scenecut=40 / rc-lookahead=10 / lookahead-slices=0 / bframes=3 / bframe-bias=0 / b-adapt=0 / ref=1 / limit-refs=0 / no-limit-modes / no-weightp / no-weightb / aq-mode=1 / qg-size=32 / aq-strength=0.00 / cbqpoffs=0 / crqpoffs=0 / rd=2 / psy-rd=2.00 / rdoq-level=0 / psy-rdoq=0.00 / log2-max-poc-lsb=8 / no-rd-refine / signhide / deblock=0:0 / no-sao / no-sao-non-deblock / b-pyramid / cutree / no-intra-refresh / rc=abr / bitrate=2000 / qcomp=0.60 / qpmin=0 / qpmax=69 / qpstep=4 / ipratio=1.40 / pbratio=1.30
Default : Yes
Forced : No
Color range : Limited
Color primaries : BT.709
Transfer characteristics : BT.709
Matrix coefficients : BT.709
DURATION : 01:34:50.060000000
NUMBER_OF_FRAMES : 136425
NUMBER_OF_BYTES : 1419210048
_STATISTICS_WRITING_APP : mkvmerge v8.3.0 ('Over the Horizon') 64bit
_STATISTICS_WRITING_DATE_UT : 2017-02-08 07:44:59
_STATISTICS_TAGS : BPS DURATION NUMBER_OF_FRAMES NUMBER_OF_BYTES

Audio
ID : 2
Format : DTS
Format/Info : Digital Theater Systems
Mode : 16
Format settings, Endianness : Big
Codec ID : A_DTS
Duration : 1h 34mn
Bit rate mode : Constant
Bit rate : 1 509 Kbps
Channel(s) : 6 channels
Channel positions : Front: L C R, Side: L R, LFE
Sampling rate : 48.0 KHz
Bit depth : 24 bits
Compression mode : Lossy
Stream size : 1 024 MiB (43%)
Title : Surround
Language : English
Default : Yes
Forced : No
DURATION : 01:34:50.070000000
NUMBER_OF_FRAMES : 533444
NUMBER_OF_BYTES : 1073289328
_STATISTICS_WRITING_APP : mkvmerge v8.3.0 ('Over the Horizon') 64bit
_STATISTICS_WRITING_DATE_UT : 2017-02-08 07:44:59
_STATISTICS_TAGS : BPS DURATION NUMBER_OF_FRAMES NUMBER_OF_BYTES





General
Unique ID : 180657192992356495316477669843050830521 (0x87E94F4CC737FC08AD985F9DFDC61AB9)
Complete name : C:\Bad.Santa.2.2016.UNRATED.1080p.BRRip.HEVC.mkv
Format : Matroska
Format version : Version 4 / Version 2
File size : 2.98 GiB
Duration : 1 h 34 min
Overall bit rate : 4 497 kb/s
Encoded date : UTC 2017-02-08 15:20:07
Writing application : mkvmerge v8.3.0 ('Over the Horizon') 64bit
Writing library : libebml v1.3.1 + libmatroska v1.4.2

Video
ID : 1
Format : HEVC
Format/Info : High Efficiency Video Coding
Format profile : Main@L4@Main
Codec ID : V_MPEGH/ISO/HEVC
Duration : 1 h 34 min
Bit rate : 2 986 kb/s
Width : 1 920 pixels
Height : 1 040 pixels
Display aspect ratio : 1.85:1
Frame rate mode : Constant
Frame rate : 23.976 (24000/1001) FPS
Color space : YUV
Chroma subsampling : 4:2:0
Bit depth : 8 bits
Bits/(Pixel*Frame) : 0.062
Stream size : 1.98 GiB (66%)
Writing library : x265 2.1:[Windows][GCC 5.4.0][64 bit] 8bit
Encoding settings : wpp / ctu=32 / min-cu-size=8 / max-tu-size=32 / tu-intra-depth=1 / tu-inter-depth=1 / me=1 / subme=1 / merange=57 / no-rect / no-amp / max-merge=2 / temporal-mvp / early-skip / rskip / rdpenalty=0 / no-tskip / no-tskip-fast / strong-intra-smoothing / no-lossless / no-cu-lossless / no-constrained-intra / fast-intra / open-gop / no-temporal-layers / interlace=0 / keyint=240 / min-keyint=24 / scenecut=40 / rc-lookahead=10 / lookahead-slices=6 / bframes=3 / bframe-bias=0 / b-adapt=0 / ref=1 / limit-refs=0 / no-limit-modes / no-weightp / no-weightb / aq-mode=1 / qg-size=32 / aq-strength=0.00 / cbqpoffs=0 / crqpoffs=0 / rd=2 / psy-rd=2.00 / rdoq-level=0 / psy-rdoq=0.00 / log2-max-poc-lsb=8 / no-rd-refine / signhide / deblock=0:0 / no-sao / no-sao-non-deblock / b-pyramid / cutree / no-intra-refresh / rc=abr / bitrate=3000 / qcomp=0.60 / qpmin=0 / qpmax=69 / qpstep=4 / ipratio=1.40 / pbratio=1.30
Default : Yes
Forced : No
Color range : Limited
Color primaries : BT.709
Transfer characteristics : BT.709
Matrix coefficients : BT.709

Audio
ID : 2
Format : DTS
Format/Info : Digital Theater Systems
Mode : 16
Format settings, Endianness : Big
Codec ID : A_DTS
Duration : 1 h 34 min
Bit rate mode : Constant
Bit rate : 1 509 kb/s
Channel(s) : 6 channels
Channel positions : Front: L C R, Side: L R, LFE
Sampling rate : 48.0 kHz
Frame rate : 93.750 FPS (512 spf)
Bit depth : 24 bits
Compression mode : Lossy
Stream size : 1 024 MiB (34%)
Title : Surround
Language : English
Default : Yes
Forced : No




Screenshots BDRip

Bad Santa 2 (2016) [UNRATED]

Bad Santa 2 (2016) [UNRATED]

Bad Santa 2 (2016) [UNRATED]


Screenshots BRRip

Bad Santa 2 (2016) [UNRATED]

Bad Santa 2 (2016) [UNRATED]

Bad Santa 2 (2016) [UNRATED]


Screenshots BDRip 1080p

Bad Santa 2 (2016) [UNRATED]

Bad Santa 2 (2016) [UNRATED]

Bad Santa 2 (2016) [UNRATED]



Bad Santa 2 (2016) [UNRATED]

Screenshots BRRip 720p

Bad Santa 2 (2016) [UNRATED]

Bad Santa 2 (2016) [UNRATED]

Bad Santa 2 (2016) [UNRATED]


Screenshots BRRip 1080p

Bad Santa 2 (2016) [UNRATED]

Bad Santa 2 (2016) [UNRATED]

Bad Santa 2 (2016) [UNRATED]