Baker's Man (2017)

Posted By: Tavaz
1080p (FullHD) / WEB-DL IMDb
Baker's Man (2017)

Baker's Man (2017)
WEB-DL | MKV | 1920x1080 | English | H264 @ 7818 kbps | E-AC-3 @ 224 kbps | 1 h 15 min | 4.23 GiB
Subtitles: English
Genre: Comedy, Romance

While evaluating her for his $100,000 grant, Thomas Stevens, a multimillionaire falls for the pastry chef that he believes stole his mother's bakery.



15948c8c25cb4d3eab2b318309c865a7.mkv (4.2 GB)



General
Complete name : ./15948c8c25cb4d3eab2b318309c865a7.mkv
Format : Matroska
Format version : Version 4 / Version 2
File size : 4.23 GiB
Duration : 1 h 15 min
Overall bit rate mode : Variable
Overall bit rate : 8 045 kb/s
Encoded date : UTC 2017-11-27 23:20:11
Writing application : mkvmerge v17.0.0 ('Be Ur Friend') 64-bit
Writing library : libebml v1.3.5 + libmatroska v1.4.8

Video
ID : 1
Format : AVC
Format/Info : Advanced Video Codec
Format profile : High@L4
Format settings : CABAC / 4 Ref Frames
Format settings, CABAC : Yes
Format settings, RefFrames : 4 frames
Codec ID : V_MPEG4/ISO/AVC
Duration : 1 h 15 min
Bit rate mode : Variable
Bit rate : 7 818 kb/s
Maximum bit rate : 15.0 Mb/s
Width : 1 920 pixels
Height : 1 080 pixels
Display aspect ratio : 16:9
Frame rate mode : Constant
Frame rate : 23.976 (24000/1001) FPS
Color space : YUV
Chroma subsampling : 4:2:0
Bit depth : 8 bits
Scan type : Progressive
Bits/(Pixel*Frame) : 0.157
Stream size : 4.11 GiB (97%)
Default : Yes
Forced : No
Color range : Limited
Color primaries : BT.709
Transfer characteristics : BT.709
Matrix coefficients : BT.709

Audio
ID : 2
Format : E-AC-3
Format/Info : Enhanced Audio Coding 3
Format settings, Endianness : Big
Codec ID : A_EAC3
Duration : 1 h 15 min
Bit rate mode : Constant
Bit rate : 224 kb/s
Channel(s) : 2 channels
Channel positions : Front: L R
Sampling rate : 48.0 kHz
Frame rate : 187.500 FPS (256 SPF)
Compression mode : Lossy
Stream size : 121 MiB (3%)
Language : English
Service kind : Complete Main
Default : Yes
Forced : No

Text
ID : 3
Format : UTF-8
Codec ID : S_TEXT/UTF8
Codec ID/Info : UTF-8 Plain Text
Duration : 1 h 12 min
Bit rate : 89 b/s
Count of elements : 1494
Stream size : 47.6 KiB (0%)
Language : English
Default : No
Forced : No





Baker's Man (2017)


Baker's Man (2017)


Baker's Man (2017)


Baker's Man (2017)


Baker's Man (2017)