Balls Out: The Gary Houseman Story (2009)

Posted By: Tavaz
1080p (FullHD) / BDRip IMDb
Balls Out: The Gary Houseman Story (2009)

Balls Out: The Gary Houseman Story (2009)
BluRay Remux | MKV | 1920x1080 | English | H264 @ 16498 kbps | AC-3 @ 448 kbps | 1 h 32 min | 11.0 GiB
Genre: Comedy

An overenthusiastic high-school maintenance man attempts to lead an unlikely group of misfits to the Nebraska state tennis championship in Balls Out: The Gary Houseman Story? director Danny Leiner's underdog sports comedy. American Pie star Seann William Scott stars as the ambitious janitor who believes he has what it takes to coach the winning team.

05c91ca876af430eaa101d973659d9e2.mkv (11.0 GB)



General
Complete name : ./05c91ca876af430eaa101d973659d9e2.mkv
Format : Matroska
Format version : Version 4 / Version 2
File size : 11.0 GiB
Duration : 1 h 32 min
Overall bit rate mode : Variable
Overall bit rate : 16.9 Mb/s
Encoded date : UTC 2017-09-09 19:29:58
Writing application : mkvmerge v15.0.0 ('Duel with the Devil') 64-bit
Writing library : libebml v1.3.5 + libmatroska v1.4.5

Video
ID : 1
Format : AVC
Format/Info : Advanced Video Codec
Format profile : High@L4.1
Format settings : CABAC / 4 Ref Frames
Format settings, CABAC : Yes
Format settings, RefFrames : 4 frames
Codec ID : V_MPEG4/ISO/AVC
Duration : 1 h 32 min
Bit rate mode : Variable
Bit rate : 16.5 Mb/s
Maximum bit rate : 35.0 Mb/s
Width : 1 920 pixels
Height : 1 080 pixels
Display aspect ratio : 16:9
Frame rate mode : Constant
Frame rate : 23.976 (24000/1001) FPS
Standard : NTSC
Color space : YUV
Chroma subsampling : 4:2:0
Bit depth : 8 bits
Scan type : Progressive
Bits/(Pixel*Frame) : 0.332
Stream size : 10.7 GiB (97%)
Default : Yes
Forced : No
Color range : Limited
Color primaries : BT.709
Transfer characteristics : BT.709
Matrix coefficients : BT.709

Audio
ID : 2
Format : AC-3
Format/Info : Audio Coding 3
Format settings, Endianness : Big
Codec ID : A_AC3
Duration : 1 h 32 min
Bit rate mode : Constant
Bit rate : 448 kb/s
Channel(s) : 2 channels
Channel positions : Front: L R
Sampling rate : 48.0 kHz
Frame rate : 31.250 FPS (1536 SPF)
Bit depth : 16 bits
Compression mode : Lossy
Stream size : 297 MiB (3%)
Title : AC3 2.0
Language : English
Service kind : Complete Main
Default : Yes
Forced : No

Menu
00:00:00.000 : en:00:00:00.000
00:21:17.943 : en:00:21:17.943
00:48:01.796 : en:00:48:01.796
01:10:11.624 : en:01:10:11.624





Balls Out: The Gary Houseman Story (2009)


Balls Out: The Gary Houseman Story (2009)


Balls Out: The Gary Houseman Story (2009)


Balls Out: The Gary Houseman Story (2009)


Balls Out: The Gary Houseman Story (2009)