Baltimore Rising (2017)

Posted By: JohnSmith
1080p (FullHD) / WEB-DL IMDb
Baltimore Rising (2017)

Baltimore Rising (2017)
WEB-DL 1080p | MKV / AVC@10.5 Mb/s | 1920x1080 | 1h 33mn | 7.27 GB
English: AC3, 640 kb/s (6 ch) | Subtitles: English
Genre: Documentary

Baltimore Rising follows activists, police officers, community leaders and gang affiliates, who struggle to hold Baltimore together in the wake of Freddie Gray's death in police custody.




General
Unique ID : 223839370795870394850580564608653499560 (0xA865E50AB8DC5DF7B76E1D760E3C9CA8)
Complete name : D:\Downloads\Baltimore.Rising.2017.1080p.Amazon.WEB-DL.DD+5.1.H.264-QOQ.mkv
Format : Matroska
Format version : Version 4 / Version 2
File size : 7.27 GiB
Duration : 1 h 33 min
Overall bit rate mode : Variable
Overall bit rate : 11.1 Mb/s
Encoded date : UTC 2017-11-23 06:44:17
Writing application : mkvmerge v13.0.0 ('The Juggler') 64bit
Writing library : libebml v1.3.4 + libmatroska v1.4.5

Video
ID : 1
Format : AVC
Format/Info : Advanced Video Codec
Format profile : High@L4
Format settings, CABAC : Yes
Format settings, ReFrames : 4 frames
Codec ID : V_MPEG4/ISO/AVC
Duration : 1 h 33 min
Bit rate mode : Variable
Bit rate : 10.5 Mb/s
Maximum bit rate : 15.0 Mb/s
Width : 1 920 pixels
Height : 1 080 pixels
Display aspect ratio : 16:9
Frame rate mode : Constant
Frame rate : 23.976 (24000/1001) FPS
Color space : YUV
Chroma subsampling : 4:2:0
Bit depth : 8 bits
Scan type : Progressive
Bits/(Pixel*Frame) : 0.211
Stream size : 6.85 GiB (94%)
Default : Yes
Forced : No
Color range : Limited
Color primaries : BT.709
Transfer characteristics : BT.709
Matrix coefficients : BT.709

Audio
ID : 2
Format : E-AC-3
Format/Info : Enhanced Audio Coding 3
Format settings, Endianness : Big
Codec ID : A_EAC3
Duration : 1 h 33 min
Bit rate mode : Constant
Bit rate : 640 kb/s
Channel(s) : 6 channels
Channel positions : Front: L C R, Side: L R, LFE
Sampling rate : 48.0 kHz
Frame rate : 187.500 FPS (256 spf)
Compression mode : Lossy
Stream size : 427 MiB (6%)
Language : English
Service kind : Complete Main
Default : Yes
Forced : No

Text
ID : 3
Format : UTF-8
Codec ID : S_TEXT/UTF8
Codec ID/Info : UTF-8 Plain Text
Duration : 1 h 33 min
Bit rate : 116 b/s
Count of elements : 2315
Stream size : 79.5 KiB (0%)
Language : English
Default : No
Forced : No




Screenshots

Baltimore Rising (2017)

Baltimore Rising (2017)

Baltimore Rising (2017)