Band Aid (2017)

Posted By: JohnSmith
720p (HD) / BDRip IMDb
Band Aid (2017)

Band Aid (2017)
BDRip | MKV / AVC@1410 kb/s | 848x352 | 1h 33mn | 1.22 GB
Italian (dubbed): AC3, 448 kb/s (6 ch) | Subtitles: Italian (forced, full)
BDRip 720p | MKV / AVC@3080 kb/s | 1280x534 | 1h 33mn | 2.31 GB
Italian (dubbed): AC3, 448 kb/s (6 ch) | Subtitles: Italian (forced, full)
Genre: Comedy | Drama | Music

Una coppia che non riesce a smettere di litigare si avventura nel più improbabile degli sforzi per salvare il proprio matrimonio. I due decidono per ciò di trasformare le loro litigate in canzoni e di mettere insieme una band.

IMDB - 1 win & 2 nominations.



General
Unique ID : 205860672372957873236855630650258307135 (0x9ADF52C5B8796F50A2E4FE118465383F)
Complete name : A:\Band.Aid.2017.iTA.Bluray.480p.x264-CYBER.mkv
Format : Matroska
Format version : Version 4 / Version 2
File size : 1.22 GiB
Duration : 1 h 33 min
Overall bit rate : 1 860 kb/s
Encoded date : UTC 2018-01-12 14:49:43
Writing application : mkvmerge v8.3.0 ('Over the Horizon') 64bit
Writing library : libebml v1.3.1 + libmatroska v1.4.2

Video
ID : 1
Format : AVC
Format/Info : Advanced Video Codec
Format profile : High@L4.1
Format settings, CABAC : Yes
Format settings, ReFrames : 5 frames
Codec ID : V_MPEG4/ISO/AVC
Duration : 1 h 33 min
Bit rate : 1 410 kb/s
Width : 848 pixels
Height : 352 pixels
Display aspect ratio : 2.40:1
Original display aspect rat : 2.40:1
Frame rate mode : Constant
Frame rate : 23.976 (24000/1001) FPS
Color space : YUV
Chroma subsampling : 4:2:0
Bit depth : 8 bits
Scan type : Progressive
Bits/(Pixel*Frame) : 0.197
Stream size : 946 MiB (76%)
Writing library : x264 core 152 r2851 ba24899
Language : English
Default : Yes
Forced : No

Audio
ID : 2
Format : AC-3
Format/Info : Audio Coding 3
Format settings, Endianness : Big
Codec ID : A_AC3
Duration : 1 h 33 min
Bit rate mode : Constant
Bit rate : 448 kb/s
Channel(s) : 6 channels
Channel positions : Front: L C R, Side: L R, LFE
Sampling rate : 48.0 kHz
Frame rate : 31.250 FPS (1536 spf)
Bit depth : 16 bits
Compression mode : Lossy
Stream size : 300 MiB (24%)
Title : ChiliTV
Language : Italian
Service kind : Complete Main
Default : Yes
Forced : No

Text #1
ID : 3
Format : UTF-8
Codec ID : S_TEXT/UTF8
Codec ID/Info : UTF-8 Plain Text
Duration : 55 min 1 s
Bit rate : 0 b/s
Count of elements : 3
Stream size : 66.0 Bytes (0%)
Title : FORCED
Language : Italian
Default : Yes
Forced : No

Text #2
ID : 4
Format : UTF-8
Codec ID : S_TEXT/UTF8
Codec ID/Info : UTF-8 Plain Text
Duration : 1 h 33 min
Bit rate : 72 b/s
Count of elements : 1459
Stream size : 49.1 KiB (0%)
Title : REGOLARI
Language : Italian
Default : No
Forced : No





General
Unique ID : 218346478289714184223954230294470144660 (0xA44400883F42232DB8293628ECEB3294)
Complete name : A:\Band.Aid.2017.iTA.Bluray.720p.x264-CYBER.mkv
Format : Matroska
Format version : Version 4 / Version 2
File size : 2.31 GiB
Duration : 1 h 33 min
Overall bit rate : 3 527 kb/s
Encoded date : UTC 2018-01-12 14:48:41
Writing application : mkvmerge v8.3.0 ('Over the Horizon') 64bit
Writing library : libebml v1.3.1 + libmatroska v1.4.2

Video
ID : 1
Format : AVC
Format/Info : Advanced Video Codec
Format profile : High@L4.1
Format settings, CABAC : Yes
Format settings, ReFrames : 5 frames
Codec ID : V_MPEG4/ISO/AVC
Duration : 1 h 33 min
Bit rate : 3 078 kb/s
Width : 1 280 pixels
Height : 534 pixels
Display aspect ratio : 2.40:1
Original display aspect rat : 2.40:1
Frame rate mode : Constant
Frame rate : 23.976 (24000/1001) FPS
Color space : YUV
Chroma subsampling : 4:2:0
Bit depth : 8 bits
Scan type : Progressive
Bits/(Pixel*Frame) : 0.188
Stream size : 2.02 GiB (87%)
Writing library : x264 core 152 r2851 ba24899
Language : English
Default : Yes
Forced : No

Audio
ID : 2
Format : AC-3
Format/Info : Audio Coding 3
Format settings, Endianness : Big
Codec ID : A_AC3
Duration : 1 h 33 min
Bit rate mode : Constant
Bit rate : 448 kb/s
Channel(s) : 6 channels
Channel positions : Front: L C R, Side: L R, LFE
Sampling rate : 48.0 kHz
Frame rate : 31.250 FPS (1536 spf)
Bit depth : 16 bits
Compression mode : Lossy
Stream size : 300 MiB (13%)
Title : ChiliTV
Language : Italian
Service kind : Complete Main
Default : Yes
Forced : No

Text #1
ID : 3
Format : UTF-8
Codec ID : S_TEXT/UTF8
Codec ID/Info : UTF-8 Plain Text
Duration : 55 min 1 s
Bit rate : 0 b/s
Count of elements : 3
Stream size : 66.0 Bytes (0%)
Title : FORCED
Language : Italian
Default : Yes
Forced : No

Text #2
ID : 4
Format : UTF-8
Codec ID : S_TEXT/UTF8
Codec ID/Info : UTF-8 Plain Text
Duration : 1 h 33 min
Bit rate : 72 b/s
Count of elements : 1459
Stream size : 49.1 KiB (0%)
Title : REGOLARI
Language : Italian
Default : No
Forced : No




Screenshots BDRip

Band Aid (2017)

Band Aid (2017)

Band Aid (2017)


Screenshots BDRip 720p

Band Aid (2017)

Band Aid (2017)

Band Aid (2017)