Bar25 (2012)

Posted By: vivid23
Bar25 (2012)

Bar25 (2012)
DVDrip | 688x368 | AVI/XviD @ 2146 Kbps | 96mn | Audio: English AC3 448 kbps, 6 channels | Subs: None | 1.76 GB
Genre: Documentary

Worlds away from society's conventions and norms, Bar25 became the melting pot from which a truly Berlin culture emerged. The film follows the creators of Bar25, four young individuals whose freewheeling way of life, of music, individuality and never ending energy transforms a riverside wasteland into a fantasy land by the river Spree. But if the community's life appears fulfilling from the outside, living it day after day isn't easy. With this rhythmic and colorful film we aim to show viewers the diversity, internationality and creativity of Berlin and what it takes to create a seemingly utopian world.

More info

Video
ID : 0
Format : MPEG-4 Visual
Format profile : Advanced Simple@L5
Format settings, BVOP : Yes
Format settings, QPel : No
Format settings, GMC : No warppoints
Format settings, Matrix : Default (H.263)
Codec ID : XVID
Codec ID/Hint : XviD
Duration : 1h 36mn
Bit rate : 2 146 Kbps
Width : 688 pixels
Height : 368 pixels
Display aspect ratio : 1.870
Frame rate : 25.000 fps
Color space : YUV
Chroma subsampling : 4:2:0
Bit depth : 8 bits
Scan type : Progressive
Compression mode : Lossy
Bits/(Pixel*Frame) : 0.339
Stream size : 1.45 GiB (82%)
Writing library : XviD 1.2.1 (UTC 2008-12-04)

Audio
ID : 1
Format : AC-3
Format/Info : Audio Coding 3
Mode extension : CM (complete main)
Codec ID : 2000
Duration : 1h 36mn
Bit rate mode : Constant
Bit rate : 448 Kbps
Channel(s) : 6 channels
Channel positions : Front: L C R, Side: L R, LFE
Sampling rate : 48.0 KHz
Bit depth : 16 bits
Compression mode : Lossy
Stream size : 309 MiB (17%)
Alignment : Split accross interleaves
Interleave, duration : 40 ms (1.00 video frame)
Interleave, preload duration : 500 ms


Bar25 (2012)

Bar25 (2012)


Feel free to contact me when links are dead