Barry Seal: Only in America (2017)

Posted By: Tavaz
720p (HD) / WEBRip IMDb
Barry Seal: Only in America (2017)

Barry Seal: Only in America (2017)
WEBRip | H264 | MKV | 720x388 | German | H264 @ 1023 kbps | AC-3 @ 224 kbps | 1 h 55 min | 1.01 GiB
Subtitles: German
Genre: Action, Biography, Comedy, Crime, Drama, History, Thriller

Einst war Barry Seal ein Pilot der amerikanischen TWA-Fluggesellschaft. Doch als die 1980er Jahre anbrechen, wird aus dem zuvor ehrenwerten Mann ein Drogenschmuggler. Gewinnbringend arbeitet er mit Drogenlords in Nicaragua zusammen und wird damit reich. Dann allerdings fliegen Barrys illegale Geschäfte auf. Um einer Verurteilung zu entgehen, lässt er sich von der Drogenabteilung der CIA anheuern, um das Medellín Cartel auszuspionieren. Seine Schmugglertätigkeit gibt Seal trotzdem nicht auf.



pso-barryseal_web.sd.mkv (1.0 GB)
secureusenetcheckdeu.html (4.4 KB)
DOWNLOADERS.BITTE.UNBEDINGT.LESEN.WICHTIG.html (4.4 KB)



General
Unique ID : 184513354110265327138323992540805514729 (0x8ACFFAB8C7D6FAE0B06A7EB543DEC5E9)
Complete name : ./Barry.Seal.Only.in.America.WEBRip.LD.German.x264.iNTERNAL-PsO/pso-barryseal_web.sd.mkv
Format : Matroska
Format version : Version 4 / Version 2
File size : 1.01 GiB
Duration : 1 h 55 min
Overall bit rate : 1 249 kb/s
Encoded date : UTC 2017-11-21 18:15:24
Writing application : mkvmerge v8.0.0 ('Til The Day That I Die') 64bit
Writing library : libebml v1.3.1 + libmatroska v1.4.2

Video
ID : 1
Format : AVC
Format/Info : Advanced Video Codec
Format profile : High@L3.1
Format settings : CABAC / 5 Ref Frames
Format settings, CABAC : Yes
Format settings, RefFrames : 5 frames
Codec ID : V_MPEG4/ISO/AVC
Duration : 1 h 55 min
Bit rate : 1 023 kb/s
Width : 720 pixels
Height : 388 pixels
Display aspect ratio : 1.85:1
Frame rate mode : Constant
Frame rate : 23.976 (24000/1001) FPS
Color space : YUV
Chroma subsampling : 4:2:0
Bit depth : 8 bits
Scan type : Progressive
Bits/(Pixel*Frame) : 0.153
Stream size : 844 MiB (82%)
Title : x264
Writing library : x264 core 152 r2851 ba24899
Encoding settings : cabac=1 / ref=5 / deblock=1:-1:-1 / analyse=0x3:0x113 / me=umh / subme=9 / psy=1 / psy_rd=1.00:0.15 / mixed_ref=1 / me_range=16 / chroma_me=1 / trellis=1 / 8x8dct=1 / cqm=0 / deadzone=21,11 / fast_pskip=0 / chroma_qp_offset=-3 / threads=12 / lookahead_threads=1 / sliced_threads=0 / nr=0 / decimate=1 / interlaced=0 / bluray_compat=0 / constrained_intra=0 / bframes=3 / b_pyramid=2 / b_adapt=1 / b_bias=0 / direct=3 / weightb=1 / open_gop=0 / weightp=1 / keyint=250 / keyint_min=23 / scenecut=40 / intra_refresh=0 / rc_lookahead=40 / rc=crf / mbtree=1 / crf=19.0 / qcomp=0.60 / qpmin=16 / qpmax=69 / qpstep=4 / ip_ratio=1.40 / aq=1:1.00
Language : English
Default : Yes
Forced : Yes

Audio
ID : 2
Format : AC-3
Format/Info : Audio Coding 3
Format settings, Endianness : Big
Codec ID : A_AC3
Duration : 1 h 55 min
Bit rate mode : Constant
Bit rate : 224 kb/s
Channel(s) : 2 channels
Channel positions : Front: L R
Sampling rate : 48.0 kHz
Frame rate : 31.250 FPS (1536 SPF)
Bit depth : 16 bits
Compression mode : Lossy
Stream size : 185 MiB (18%)
Language : German
Service kind : Complete Main
Default : Yes
Forced : Yes

Text
ID : 3
Format : UTF-8
Codec ID : S_TEXT/UTF8
Codec ID/Info : UTF-8 Plain Text
Duration : 37 min 39 s
Bit rate : 2 b/s
Count of elements : 17
Stream size : 660 Bytes (0%)
Title : forced
Language : German
Default : Yes
Forced : Yes





Barry Seal: Only in America (2017)


Barry 			  		 	 	  		 	    	 			   			  	  		  	   	 			   		   	  		 			  		  		  	 			   			  				 Seal: Only in America (2017)


Barry Seal: Only in America (2017)


Barry Seal: Only in America (2017)


Barry Seal: Only in America (2017)