Batman (1966)

Posted By: Tavaz
1080p (FullHD) / BDRip IMDb
Batman (1966)

Batman (1966)
BDRip | MKV | 1920x1044 | English | H265 @ 3323 kbps | AC-3 @ 448 kbps | 1 h 44 min | 2.79 GiB
Subtitles: English
Genre: Adventure, Comedy, Crime, Science Fiction, Family

The Dynamic Duo faces four super-villains who plan to hold the world for ransom with the help of a secret invention that instantly dehydrates people.

fb405abc36ae4c998d75ae60a108287c.mkv (2.8 GB)



General
Complete name : ./fb405abc36ae4c998d75ae60a108287c.mkv
Format : Matroska
Format version : Version 2
File size : 2.79 GiB
Duration : 1 h 44 min
Overall bit rate : 3 811 kb/s
Encoded date : UTC 2018-03-13 07:42:50
Writing application : DVDFab 10.0.8.4
Writing library : libebml v1.3.4 + libmatroska v1.4.5

Video
ID : 1
Format : HEVC
Format/Info : High Efficiency Video Coding
Format profile : Main 10@L4@Main
Codec ID : V_MPEGH/ISO/HEVC
Duration : 1 h 44 min
Bit rate : 3 324 kb/s
Width : 1 920 pixels
Height : 1 044 pixels
Display aspect ratio : 1.85:1
Frame rate mode : Constant
Frame rate : 23.976 (24000/1001) FPS
Color space : YUV
Chroma subsampling : 4:2:0
Bit depth : 10 bits
Bits/(Pixel*Frame) : 0.069
Stream size : 2.44 GiB (87%)
Default : Yes
Forced : No
Color range : Limited
Color primaries : BT.709
Transfer characteristics : BT.709
Matrix coefficients : BT.709

Audio
ID : 2
Format : AC-3
Format/Info : Audio Coding 3
Format settings, Endianness : Big
Codec ID : A_AC3
Duration : 1 h 44 min
Bit rate mode : Constant
Bit rate : 448 kb/s
Channel(s) : 6 channels
Channel positions : Front: L C R, Side: L R, LFE
Sampling rate : 48.0 kHz
Frame rate : 31.250 FPS (1536 SPF)
Bit depth : 16 bits
Compression mode : Lossy
Stream size : 336 MiB (12%)
Language : English
Service kind : Complete Main
Default : Yes
Forced : No

Text #1
ID : 3
Format : VobSub
Codec ID : S_VOBSUB
Codec ID/Info : Picture based subtitle format used on DVDs
Duration : 1 h 42 min
Bit rate : 8 317 b/s
Count of elements : 935
Stream size : 6.08 MiB (0%)
Language : English
Default : No
Forced : No

Text #2
ID : 4
Format : VobSub
Codec ID : S_VOBSUB
Codec ID/Info : Picture based subtitle format used on DVDs
Duration : 1 h 44 min
Bit rate : 13.0 kb/s
Count of elements : 1375
Stream size : 9.76 MiB (0%)
Language : English
Default : No
Forced : No

Text #3
ID : 5
Format : VobSub
Codec ID : S_VOBSUB
Codec ID/Info : Picture based subtitle format used on DVDs
Duration : 1 h 44 min
Bit rate : 16.5 kb/s
Count of elements : 1570
Stream size : 12.4 MiB (0%)
Language : English
Default : No
Forced : No

Menu
00:00:00.000 : en:(01)00:00:00:000
00:02:40.702 : en:(02)00:02:40:702
00:07:08.177 : en:(03)00:07:08:177
00:09:27.608 : en:(04)00:09:27:608
00:11:35.611 : en:(05)00:11:35:611
00:13:57.169 : en:(06)00:13:57:169
00:18:41.829 : en:(07)00:18:41:829
00:22:41.902 : en:(08)00:22:41:902
00:28:20.615 : en:(09)00:28:20:615
00:29:46.951 : en:(10)00:29:46:951
00:32:12.055 : en:(11)00:32:12:055
00:34:42.538 : en:(12)00:34:42:538
00:38:46.323 : en:(13)00:38:46:323
00:42:14.865 : en:(14)00:42:14:865
00:46:02.759 : en:(15)00:46:02:759
00:50:23.186 : en:(16)00:50:23:186
00:52:58.174 : en:(17)00:52:58:174
00:55:39.335 : en:(18)00:55:39:335
01:00:27.373 : en:(19)01:00:27:373
01:04:06.050 : en:(20)01:04:06:050
01:06:19.183 : en:(21)01:06:19:183
01:10:11.623 : en:(22)01:10:11:623
01:13:00.292 : en:(23)01:13:00:292
01:14:50.986 : en:(24)01:14:50:986
01:18:50.850 : en:(25)01:18:50:850
01:22:18.683 : en:(26)01:22:18:683
01:25:44.222 : en:(27)01:25:44:222
01:30:50.027 : en:(28)01:30:50:027
01:34:09.768 : en:(29)01:34:09:768
01:35:45.447 : en:(30)01:35:45:447
01:39:54.446 : en:(31)01:39:54:446
01:44:21.046 : en:(32)01:44:21:046
01:44:52.911 : en:(33)01:44:52:911





Batman (1966)


Batman (1966)


Batman (1966)


Batman (1966)


Batman (1966)