Tags
Language
Tags

Batman v Superman: Dawn of Justice (2016) [Extended Cut]

Posted By: Nedulow
1080p (FullHD) / BDRip IMDb
Batman v Superman: Dawn of Justice (2016) [Extended Cut]

Batman v Superman: Dawn of Justice (2016) [Extended Cut]
BRRip | MKV / AVC@2272 kb/s | 1024x576 | 3h 2mn
English: AC3, 384 kb/s (6 ch) | Subtitles: English (Full,SDH) | 3.39 GB
BDRip 1080p | MKV / AVC@7000 kb/s | 1920x800 | 3h 2mn
English: AC3, 640 kb/s (6 ch) | Subtitles: English (Full,SDH) | 9.75 GB
Genre: Action, Adventure, Sci-Fi

Fearing that the actions of Superman are left unchecked, Batman takes on the Man of Steel, while the world wrestles with what kind of a hero it really needs.


General
Unique ID : 234429868380835702062583481657612524767 (0xB05D8CE2E8715483B4301DB46EEB5CDF)
Complete name : C:\Batman.v.Superman.Dawn.of.Justice.Extended.Cut.2016.BRRip.mkv
Format : Matroska
Format version : Version 2
File size : 3.39 GiB
Duration : 3 h 2 min
Overall bit rate : 2 658 kb/s
Movie name : Batman v Superman: Dawn of Justice [Ultimate Edition] (2016)
Encoded date : UTC 2021-11-29 15:40:42
Writing application : mkvmerge v7.8.0 ('River Man') 32bit built on Apr 3 2015 12:11:22
Writing library : libebml v1.3.1 + libmatroska v1.4.2
Cover : Yes
Attachments : cover.png / small_cover.png

Video
ID : 1
Format : AVC
Format/Info : Advanced Video Codec
Format profile : High@L3.1
Format settings : CABAC / 8 Ref Frames
Format settings, CABAC : Yes
Format settings, Reference : 8 frames
Codec ID : V_MPEG4/ISO/AVC
Duration : 3 h 2 min
Bit rate : 2 272 kb/s
Width : 1 024 pixels
Height : 576 pixels
Display aspect ratio : 16:9
Frame rate mode : Constant
Frame rate : 23.976 FPS
Color space : YUV
Chroma subsampling : 4:2:0
Bit depth : 8 bits
Scan type : Progressive
Bits/(Pixel*Frame) : 0.161
Stream size : 2.83 GiB (84%)
Writing library : x264 core 146 r2538 121396c
Encoding settings : cabac=1 / ref=8 / deblock=1:0:0 / analyse=0x3:0x113 / me=umh / subme=10 / psy=1 / psy_rd=1.00:0.00 / mixed_ref=1 / me_range=32 / chroma_me=1 / trellis=2 / 8x8dct=1 / cqm=0 / deadzone=21,11 / fast_pskip=0 / chroma_qp_offset=-2 / threads=6 / lookahead_threads=1 / sliced_threads=0 / nr=0 / decimate=1 / interlaced=0 / bluray_compat=0 / constrained_intra=0 / bframes=9 / b_pyramid=2 / b_adapt=2 / b_bias=0 / direct=3 / weightb=1 / open_gop=0 / weightp=2 / keyint=250 / keyint_min=23 / scenecut=40 / intra_refresh=0 / rc_lookahead=50 / rc=2pass / mbtree=1 / bitrate=2272 / ratetol=1.0 / qcomp=0.60 / qpmin=0 / qpmax=69 / qpstep=4 / cplxblur=20.0 / qblur=0.5 / vbv_maxrate=14000 / vbv_bufsize=14000 / nal_hrd=none / filler=0 / ip_ratio=1.40 / aq=1:1.00
Language : English
Default : Yes
Forced : Yes

Audio
ID : 2
Format : AC-3
Format/Info : Audio Coding 3
Commercial name : Dolby Digital
Codec ID : A_AC3
Duration : 3 h 2 min
Bit rate mode : Constant
Bit rate : 384 kb/s
Channel(s) : 6 channels
Channel layout : L R C LFE Ls Rs
Sampling rate : 48.0 kHz
Frame rate : 31.250 FPS (1536 SPF)
Bit depth : 16 bits
Compression mode : Lossy
Stream size : 501 MiB (14%)
Language : English
Service kind : Complete Main
Default : No
Forced : No

Text #1
ID : 3
Format : UTF-8
Codec ID : S_TEXT/UTF8
Codec ID/Info : UTF-8 Plain Text
Title : Full (Eng) / S_TEXT/UTF8
Language : English
Default : No
Forced : No

Text #2
ID : 4
Format : UTF-8
Codec ID : S_TEXT/UTF8
Codec ID/Info : UTF-8 Plain Text
Title : Full [SDH] (Eng) / S_TEXT/UTF8
Language : English
Default : No
Forced : No

Menu
00:00:00.000 : en:Chapter 1
00:10:10.652 : en:Chapter 2
00:27:00.661 : en:Chapter 3
00:37:49.225 : en:Chapter 4
00:46:54.520 : en:Chapter 5
01:02:04.971 : en:Chapter 6
01:14:10.613 : en:Chapter 7
01:28:07.115 : en:Chapter 8
01:41:46.642 : en:Chapter 9
01:53:52.617 : en:Chapter 10
02:02:58.079 : en:Chapter 11
02:15:04.054 : en:Chapter 12
02:27:55.075 : en:Chapter 13
02:36:51.444 : en:Chapter 14
02:48:27.514 : en:Chapter 15
02:54:43.765 : en:Chapter 16




General
Unique ID : 172145747446800793968489922975784613180 (0x818210A292C37B0BA5402A3F6AB1B53C)
Complete name : C:\Batman.v.Superman.Dawn.of.Justice.Extended.Cut.2016.BDRip.1080p.mkv
Format : Matroska
Format version : Version 2
File size : 9.75 GiB
Duration : 3 h 2 min
Overall bit rate : 7 643 kb/s
Movie name : Batman v Superman: Dawn of Justice (Ultimate Edition)
Encoded date : UTC 2021-11-29 15:35:48
Writing application : mkvmerge v7.8.0 ('River Man') 32bit built on Apr 3 2015 12:11:22
Writing library : libebml v1.3.1 + libmatroska v1.4.2
Cover : Yes
Attachments : cover.png / small_cover.png / cover_land.png / small_cover_land.png

Video
ID : 1
Format : AVC
Format/Info : Advanced Video Codec
Format profile : High@L4.1
Format settings : CABAC / 5 Ref Frames
Format settings, CABAC : Yes
Format settings, Reference : 5 frames
Codec ID : V_MPEG4/ISO/AVC
Duration : 3 h 2 min
Bit rate : 7 000 kb/s
Width : 1 920 pixels
Height : 800 pixels
Display aspect ratio : 2.40:1
Frame rate mode : Constant
Frame rate : 23.976 (24000/1001) FPS
Color space : YUV
Chroma subsampling : 4:2:0
Bit depth : 8 bits
Scan type : Progressive
Bits/(Pixel*Frame) : 0.190
Stream size : 8.74 GiB (90%)
Writing library : x264 core 148 r2638 7599210
Encoding settings : cabac=1 / ref=5 / deblock=1:-2:-1 / analyse=0x3:0x133 / me=umh / subme=11 / psy=1 / psy_rd=1.00:0.25 / mixed_ref=1 / me_range=32 / chroma_me=1 / trellis=2 / 8x8dct=1 / cqm=0 / deadzone=21,11 / fast_pskip=0 / chroma_qp_offset=-4 / threads=12 / lookahead_threads=1 / sliced_threads=0 / nr=0 / decimate=1 / interlaced=0 / bluray_compat=0 / constrained_intra=0 / bframes=4 / b_pyramid=2 / b_adapt=2 / b_bias=0 / direct=3 / weightb=1 / open_gop=0 / weightp=2 / keyint=240 / keyint_min=23 / scenecut=40 / intra_refresh=0 / rc_lookahead=60 / rc=2pass / mbtree=1 / bitrate=7000 / ratetol=1.0 / qcomp=0.60 / qpmin=0 / qpmax=69 / qpstep=4 / cplxblur=20.0 / qblur=0.5 / ip_ratio=1.40 / aq=1:1.00
Language : English
Default : Yes
Forced : No

Audio
ID : 2
Format : AC-3
Format/Info : Audio Coding 3
Commercial name : Dolby Digital
Codec ID : A_AC3
Duration : 3 h 2 min
Bit rate mode : Constant
Bit rate : 640 kb/s
Channel(s) : 6 channels
Channel layout : L R C LFE Ls Rs
Sampling rate : 48.0 kHz
Frame rate : 31.250 FPS (1536 SPF)
Bit depth : 16 bits
Compression mode : Lossy
Stream size : 836 MiB (8%)
Language : English
Service kind : Complete Main
Default : Yes
Forced : No

Text #1
ID : 3
Format : UTF-8
Codec ID : S_TEXT/UTF8
Codec ID/Info : UTF-8 Plain Text
Title : English
Language : English
Default : No
Forced : No

Text #2
ID : 4
Format : UTF-8
Codec ID : S_TEXT/UTF8
Codec ID/Info : UTF-8 Plain Text
Title : English, SDH
Language : English
Default : No
Forced : No

Menu
00:00:00.000 : en:Chapter 1
00:10:10.652 : en:Chapter 2
00:27:00.661 : en:Chapter 3
00:37:49.225 : en:Chapter 4
00:46:54.520 : en:Chapter 5
01:02:04.971 : en:Chapter 6
01:14:10.613 : en:Chapter 7
01:28:07.115 : en:Chapter 8
01:41:46.642 : en:Chapter 9
01:53:52.617 : en:Chapter 10
02:02:58.079 : en:Chapter 11
02:15:04.054 : en:Chapter 12
02:27:55.075 : en:Chapter 13
02:36:51.444 : en:Chapter 14
02:48:27.514 : en:Chapter 15
02:54:43.765 : en:Chapter 16




Screenshots BRRip

Batman v Superman: Dawn of Justice (2016) [Extended Cut]

Batman v Superman: Dawn of Justice (2016) [Extended Cut]

Batman v Superman: Dawn of Justice (2016) [Extended Cut]


Screenshots BDRip 1080p

Batman v Superman: Dawn of Justice (2016) [Extended Cut]

Batman v Superman: Dawn of Justice (2016) [Extended Cut]

Batman v Superman: Dawn of Justice (2016) [Extended Cut]