Tags
Language
Tags

Beach Red (1967)

Posted By: Tavaz
1080p (FullHD) / BDRip IMDb
Beach Red (1967)

Beach Red (1967)
BDRip | MKV | 1920x1040 | Français / English | H264 @ 8417 kbps | DTS @ 1509 kbps | 1 h 39 min | 7.95 GiB
Subtitles: Français
Genre: Action, War

American troops storm ashore on a Japanese-held island and push inland while their enemies plan a counterattack in this look at warfare. Soldiers on both sides are haunted by memories of home and the horrifying, sickening images they find in combat.

1e2fe3242a6e5a7025549d6eefe3d7fc.mkv (7.9 GB)



General
Complete name : ./1e2fe3242a6e5a7025549d6eefe3d7fc.mkv
Format : Matroska
Format version : Version 4 / Version 2
File size : 7.95 GiB
Duration : 1 h 39 min
Overall bit rate : 11.4 Mb/s
Writing application : no_variable_data
Writing library : no_variable_data

Video
ID : 1
Format : AVC
Format/Info : Advanced Video Codec
Format profile : High@L4.1
Format settings : CABAC / 4 Ref Frames
Format settings, CABAC : Yes
Format settings, RefFrames : 4 frames
Codec ID : V_MPEG4/ISO/AVC
Duration : 1 h 39 min
Bit rate : 8 417 kb/s
Width : 1 920 pixels
Height : 1 040 pixels
Display aspect ratio : 1.85:1
Frame rate mode : Constant
Frame rate : 25.000 FPS
Color space : YUV
Chroma subsampling : 4:2:0
Bit depth : 8 bits
Scan type : Progressive
Bits/(Pixel*Frame) : 0.169
Stream size : 5.85 GiB (74%)
Writing library : x264 core 160 r3009 4c9b076
Encoding settings : cabac=1 / ref=4 / deblock=1:-3:-3 / analyse=0x3:0x133 / me=umh / subme=10 / psy=1 / psy_rd=1.00:0.00 / mixed_ref=1 / me_range=24 / chroma_me=1 / trellis=2 / 8x8dct=1 / cqm=0 / deadzone=21,11 / fast_pskip=0 / chroma_qp_offset=-2 / threads=24 / lookahead_threads=4 / sliced_threads=0 / nr=0 / decimate=1 / interlaced=0 / bluray_compat=0 / constrained_intra=0 / bframes=8 / b_pyramid=2 / b_adapt=2 / b_bias=0 / direct=3 / weightb=1 / open_gop=0 / weightp=2 / keyint=250 / keyint_min=25 / scenecut=40 / intra_refresh=0 / rc=2pass / mbtree=0 / bitrate=8417 / ratetol=1.0 / qcomp=0.60 / qpmin=0 / qpmax=69 / qpstep=4 / cplxblur=20.0 / qblur=0.5 / ip_ratio=1.40 / pb_ratio=1.30 / aq=3:0.60
Default : Yes
Forced : No

Audio #1
ID : 2
Format : DTS
Format/Info : Digital Theater Systems
Mode : 16
Format settings, Endianness : Big
Codec ID : A_DTS
Duration : 1 h 39 min
Bit rate mode : Constant
Bit rate : 1 509 kb/s
Channel(s) : 2 channels
Channel positions : Front: L R
Sampling rate : 48.0 kHz
Frame rate : 93.750 FPS (512 SPF)
Bit depth : 24 bits
Compression mode : Lossy
Stream size : 1.05 GiB (13%)
Language : French
Default : Yes
Forced : No

Audio #2
ID : 3
Format : DTS
Format/Info : Digital Theater Systems
Mode : 16
Format settings, Endianness : Big
Codec ID : A_DTS
Duration : 1 h 39 min
Bit rate mode : Constant
Bit rate : 1 509 kb/s
Channel(s) : 2 channels
Channel positions : Front: L R
Sampling rate : 48.0 kHz
Frame rate : 93.750 FPS (512 SPF)
Bit depth : 24 bits
Compression mode : Lossy
Stream size : 1.05 GiB (13%)
Language : English
Default : No
Forced : No

Text #1
ID : 4
Format : UTF-8
Codec ID : S_TEXT/UTF8
Codec ID/Info : UTF-8 Plain Text
Duration : 25 s 600 ms
Bit rate : 121 b/s
Count of elements : 8
Stream size : 388 Bytes (0%)
Title : Forced SRT
Language : French
Default : Yes
Forced : Yes

Text #2
ID : 5
Format : UTF-8
Codec ID : S_TEXT/UTF8
Codec ID/Info : UTF-8 Plain Text
Duration : 1 h 35 min
Bit rate : 34 b/s
Count of elements : 755
Stream size : 23.7 KiB (0%)
Title : Full SRT
Language : French
Default : No
Forced : No

Menu
00:00:00.000 : en:Chapter 01
00:09:52.080 : en:Chapter 02
00:19:20.600 : en:Chapter 03
00:27:21.760 : en:Chapter 04
00:36:05.160 : en:Chapter 05
00:44:10.120 : en:Chapter 06
00:53:39.440 : en:Chapter 07
01:03:08.320 : en:Chapter 08
01:11:18.000 : en:Chapter 09
01:18:32.440 : en:Chapter 10
01:24:37.320 : en:Chapter 11
01:32:42.320 : en:Chapter 12





Beach Red (1967)


Beach Red (1967)


Beach Red (1967)


Beach Red (1967)


Beach Red (1967)