Tags
Language
Tags

Beauty and the Beast (2017)

Posted By: Tavaz
1080p (FullHD) / BDRip IMDb
Beauty and the Beast (2017)

Beauty and the Beast (2017)
BDRip | MKV | 1920x804 | Nederlands / English | H265 @ 2009 kbps | DTS @ 1509 kbps | 2 h 9 min | 3.58 GiB
Subtitles: Nederlands
Genre: Family, Fantasy, Romance

A live-action adaptation of Disney's version of the classic tale of a cursed prince and a beautiful young woman who helps him break the spell.

Beauty And The Beast.mkv (3.6 GB)



General
Unique ID : 225571063655889138084076957240542247491 (0xA9B3681779DC602088A631DE397A3A43)
Complete name : ./Beauty And The Beast (2017)/Beauty And The Beast.mkv
Format : Matroska
Format version : Version 4 / Version 2
File size : 3.58 GiB
Duration : 2 h 9 min
Overall bit rate : 3 969 kb/s
Movie name : @Discovery-G - Tigersplace
Encoded date : UTC 2021-01-03 09:59:38
Writing application : mkvmerge v14.0.0 ('Flow') 64bit
Writing library : libebml v1.3.4 + libmatroska v1.4.5

Video
ID : 1
Format : HEVC
Format/Info : High Efficiency Video Coding
Format profile : Main@L4@Main
Codec ID : V_MPEGH/ISO/HEVC
Duration : 2 h 9 min
Bit rate : 2 010 kb/s
Width : 1 920 pixels
Height : 804 pixels
Display aspect ratio : 2.40:1
Frame rate mode : Constant
Frame rate : 23.976 (24000/1001) FPS
Color space : YUV
Chroma subsampling : 4:2:0
Bit depth : 8 bits
Bits/(Pixel*Frame) : 0.054
Stream size : 1.81 GiB (51%)
Writing library : x265 2.1:[Windows][GCC 5.3.1][64 bit] 8bit
Encoding settings : wpp / ctu=64 / min-cu-size=8 / max-tu-size=32 / tu-intra-depth=1 / tu-inter-depth=1 / me=1 / subme=2 / merange=57 / no-rect / no-amp / max-merge=2 / temporal-mvp / no-early-skip / rskip / rdpenalty=0 / no-tskip / no-tskip-fast / strong-intra-smoothing / no-lossless / no-cu-lossless / no-constrained-intra / fast-intra / open-gop / no-temporal-layers / interlace=0 / keyint=240 / min-keyint=24 / scenecut=40 / rc-lookahead=15 / lookahead-slices=5 / bframes=4 / bframe-bias=0 / b-adapt=0 / ref=3 / limit-refs=3 / no-limit-modes / weightp / no-weightb / aq-mode=1 / qg-size=32 / aq-strength=1.00 / cbqpoffs=0 / crqpoffs=0 / rd=2 / psy-rd=2.00 / rdoq-level=0 / psy-rdoq=0.00 / log2-max-poc-lsb=8 / no-rd-refine / signhide / deblock=0:0 / sao / no-sao-non-deblock / b-pyramid / cutree / no-intra-refresh / rc=crf / crf=22.0 / qcomp=0.60 / qpmin=0 / qpmax=69 / qpstep=4 / ipratio=1.40 / pbratio=1.30
Default : Yes
Forced : No
Color range : Limited
Color primaries : BT.709
Transfer characteristics : BT.709
Matrix coefficients : BT.709

Audio #1
ID : 2
Format : DTS
Format/Info : Digital Theater Systems
Mode : 16
Format settings, Endianness : Big
Codec ID : A_DTS
Duration : 2 h 9 min
Bit rate mode : Constant
Bit rate : 1 509 kb/s
Channel(s) : 6 channels
Channel positions : Front: L C R, Side: L R, LFE
Sampling rate : 48.0 kHz
Frame rate : 93.750 FPS (512 SPF)
Bit depth : 24 bits
Compression mode : Lossy
Stream size : 1.36 GiB (38%)
Title : English
Language : English
Default : Yes
Forced : No

Audio #2
ID : 3
Format : AC-3
Format/Info : Audio Coding 3
Format settings, Endianness : Big
Codec ID : A_AC3
Duration : 2 h 9 min
Bit rate mode : Constant
Bit rate : 448 kb/s
Channel(s) : 6 channels
Channel positions : Front: L C R, Side: L R, LFE
Sampling rate : 44.1 kHz
Frame rate : 28.711 FPS (1536 SPF)
Bit depth : 16 bits
Compression mode : Lossy
Delay relative to video : 23 ms
Stream size : 414 MiB (11%)
Title : Flemish
Language : Dutch
Service kind : Complete Main
Default : No
Forced : No

Text
ID : 4
Format : UTF-8
Codec ID : S_TEXT/UTF8
Codec ID/Info : UTF-8 Plain Text
Duration : 1 h 57 min
Bit rate : 46 b/s
Count of elements : 1316
Stream size : 40.0 KiB (0%)
Language : Dutch
Default : Yes
Forced : No

Menu
00:00:00.000 : :00:00:00.000
00:04:36.276 : :00:04:36.276
00:08:06.528 : :00:08:06.526
00:11:18.261 : :00:11:18.259
00:15:21.546 : :00:15:21.543
00:18:57.386 : :00:18:57.384
00:25:06.046 : :00:25:05.921
00:31:41.566 : :00:31:41.566
00:36:08.708 : :00:36:08.708
00:42:32.300 : :00:42:32.257
00:47:01.485 : :00:47:01.318
00:54:45.157 : :00:54:44.989
01:00:43.723 : :01:00:43.556
01:07:40.932 : :01:07:40.931
01:14:38.224 : :01:14:38.220
01:19:43.696 : :01:19:43.694
01:22:02.751 : :01:22:02.751
01:28:53.370 : :01:28:53.368
01:34:01.302 : :01:34:01.301
01:38:10.218 : :01:38:10.175
01:45:23.734 : :01:45:23.692
01:49:13.964 : :01:49:13.962
01:55:54.197 : :01:55:54.197
01:58:49.539 : :01:58:49.497





Beauty and the Beast (2017)


Beauty and the Beast (2017)


Beauty and the Beast (2017)


Beauty and the Beast (2017)


Beauty and the Beast (2017)