Tags
Language
Tags

Beauty and the Beast (2017)

Posted By: Tavaz
1080p (FullHD) / BDRip IMDb
Beauty and the Beast (2017)

Beauty and the Beast (2017)
BDRip | MKV | 1920x804 | English | H265 @ 1592 kbps | DTS @ 1509 kbps | 2 h 9 min | 2.86 GiB
Subtitles: English
Genre: Fantasy, Romance, Family

A live-action adaptation of Disney's version of the classic tale of a cursed prince and a beautiful young woman who helps him break the spell.

Beauty.and.the.Beast.2017.1080p.BluRay.DTS.x265.10bit.HEVC.mkv (2.9 GB)



General
Unique ID : 241206152955826514856604668122658381429 (0xB5769D82A657DD0BA1FAE395D7AE1E75)
Complete name : ./Beauty.and.the.Beast.2017.1080p.BluRay.DTS.x265.10bit.HEVC.mkv
Format : Matroska
Format version : Version 4 / Version 2
File size : 2.86 GiB
Duration : 2 h 9 min
Overall bit rate : 3 164 kb/s
Encoded date : UTC 2018-03-27 15:26:13 / UTC 2018-03-26T23:40:45Z
Writing application : mkvmerge v15.0.0 ('Duel with the Devil') 64-bit
Writing library : libebml v1.3.5 + libmatroska v1.4.5 / Lavf57.7.2

Video
ID : 1
Format : HEVC
Format/Info : High Efficiency Video Coding
Format profile : Main 10@L4@Main
Codec ID : V_MPEGH/ISO/HEVC
Duration : 2 h 9 min
Bit rate : 1 592 kb/s
Width : 1 920 pixels
Height : 804 pixels
Display aspect ratio : 2.40:1
Frame rate mode : Constant
Frame rate : 23.976 (24000/1001) FPS
Color space : YUV
Chroma subsampling : 4:2:0
Bit depth : 10 bits
Bits/(Pixel*Frame) : 0.043
Stream size : 1.44 GiB (50%)
Writing library : x265 2.6:[Windows][GCC 7.1.0][64 bit] 10bit
Encoding settings : cpuid=1173503 / frame-threads=4 / numa-pools=16 / wpp / no-pmode / no-pme / no-psnr / no-ssim / log-level=2 / input-csp=1 / input-res=1920x804 / interlace=0 / total-frames=0 / level-idc=0 / high-tier=1 / uhd-bd=0 / ref=3 / no-allow-non-conformance / no-repeat-headers / annexb / no-aud / no-hrd / info / hash=0 / no-temporal-layers / open-gop / min-keyint=24 / keyint=240 / bframes=4 / b-adapt=0 / b-pyramid / bframe-bias=0 / rc-lookahead=15 / lookahead-slices=5 / scenecut=40 / no-intra-refresh / ctu=64 / min-cu-size=8 / no-rect / no-amp / max-tu-size=32 / tu-inter-depth=1 / tu-intra-depth=1 / limit-tu=0 / rdoq-level=0 / dynamic-rd=0.00 / no-ssim-rd / signhide / no-tskip / nr-intra=0 / nr-inter=0 / no-constrained-intra / strong-intra-smoothing / max-merge=2 / limit-refs=3 / no-limit-modes / me=1 / subme=2 / merange=57 / temporal-mvp / weightp / no-weightb / no-analyze-src-pics / deblock=0:0 / sao / no-sao-non-deblock / rd=2 / no-early-skip / rskip / fast-intra / no-tskip-fast / no-cu-lossless / no-b-intra / no-splitrd-skip / rdpenalty=0 / psy-rd=2.00 / psy-rdoq=0.00 / no-rd-refine / analysis-reuse-mode=0 / no-lossless / cbqpoffs=0 / crqpoffs=0 / rc=crf / crf=23.0 / qcomp=0.60 / qpstep=4 / stats-write=0 / stats-read=0 / ipratio=1.40 / pbratio=1.30 / aq-mode=1 / aq-strength=1.00 / cutree / zone-count=0 / no-strict-cbr / qg-size=32 / no-rc-grain / qpmax=69 / qpmin=0 / no-const-vbv / sar=1 / overscan=0 / videoformat=5 / range=0 / colorprim=1 / transfer=1 / colormatrix=1 / chromaloc=0 / display-window=0 / max-cll=0,0 / min-luma=0 / max-luma=1023 / log2-max-poc-lsb=8 / vui-timing-info / vui-hrd-info / slices=1 / no-opt-qp-pps / no-opt-ref-list-length-pps / no-multi-pass-opt-rps / scenecut-bias=0.05 / no-opt-cu-delta-qp / no-aq-motion / no-hdr / no-hdr-opt / no-dhdr10-opt / analysis-reuse-level=5 / scale-factor=0 / refine-intra=0 / refine-inter=0 / refine-mv=0 / no-limit-sao / ctu-info=0 / no-lowpass-dct / refine-mv-type=0 / copy-pic=1
Default : Yes
Forced : No
Color range : Limited
Color primaries : BT.709
Transfer characteristics : BT.709
Matrix coefficients : BT.709
Statistics Tags Issue : mkvmerge v15.0.0 ('Duel with the Devil') 64-bit 2018-03-27 15:26:13 / mkvmerge v15.0.0 ('Duel with the Devil') 64-bit 2018-03-27 15:26:13 / UTC 2018-03-26T23:40:45Z
FromStats_BitRate : 1640454
FromStats_Duration : 02:09:16.833000000
FromStats_FrameCount : 185978
FromStats_StreamSize : 1590591459

Audio
ID : 2
Format : DTS
Format/Info : Digital Theater Systems
Mode : 16
Format settings, Endianness : Big
Codec ID : A_DTS
Duration : 2 h 9 min
Bit rate mode : Constant
Bit rate : 1 509 kb/s
Channel(s) : 6 channels
Channel positions : Front: L C R, Side: L R, LFE
Sampling rate : 48.0 kHz
Frame rate : 93.750 FPS (512 SPF)
Bit depth : 24 bits
Compression mode : Lossy
Stream size : 1.36 GiB (48%)
Title : Surround
Language : English
Default : Yes
Forced : No
Statistics Tags Issue : mkvmerge v15.0.0 ('Duel with the Devil') 64-bit 2018-03-27 15:26:13 / mkvmerge v15.0.0 ('Duel with the Devil') 64-bit 2018-03-27 15:26:13 / UTC 2018-03-26T23:40:45Z
FromStats_BitRate : 1509000
FromStats_Duration : 02:09:16.864000000
FromStats_FrameCount : 727206
FromStats_StreamSize : 1463138472

Text
ID : 3
Format : PGS
Muxing mode : zlib
Codec ID : S_HDMV/PGS
Codec ID/Info : Picture based subtitle format used on BDs/HD-DVDs
Language : English
Default : No
Forced : No
Statistics Tags Issue : mkvmerge v15.0.0 ('Duel with the Devil') 64-bit 2018-03-27 15:26:13 / mkvmerge v15.0.0 ('Duel with the Devil') 64-bit 2018-03-27 15:26:13 / UTC 2018-03-26T23:40:45Z
FromStats_BitRate : 36973
FromStats_Duration : 02:08:03.509000000
FromStats_FrameCount : 4050
FromStats_StreamSize : 35510827





Beauty and the Beast (2017)


Beauty and the Beast (2017)


Beauty and the Beast (2017)


Beauty and the Beast (2017)


Beauty and the Beast (2017)