Berlin, I Love You (2019)

Posted By: Tavaz
1080p (FullHD) / BDRip IMDb
Berlin, I Love You (2019)

Berlin, I Love You (2019)
BDRip | MKV | 1920x1036 | English | H264 @ 14183 kbps | AC-3 @ 640 kbps | 1 h 59 min | 12.7 GiB
Subtitles: English
Genre: Drama

An anthology feature of 10 stories of romance set in the German capital.

Berlin.I.Love.You.2019.1080p.BluRay.DD5.1.x264-BdC=a57a0ebecd37418f9216c5c3f36f1fc23f8c196d.part1.rar (6.7 GB)
Berlin.I.Love.You.2019.1080p.BluRay.DD5.1.x264-BdC=a57a0ebecd37418f9216c5c3f36f1fc23f8c196d.part2.rar (6.2 GB)



General
Unique ID : 289288679383185084467115449967894455283 (0xD9A2F917D08777664C1E6F41EE99E3F3)
Complete name : ./Berlin I Love You 2019 1080p BluRay DD5.1 x264-BdC.mkv
Format : Matroska
Format version : Version 4 / Version 2
File size : 12.7 GiB
Duration : 1 h 59 min
Overall bit rate : 15.1 Mb/s
Movie name : Berlin I Love You 2019 1080p BluRay DD5.1 x264-BdC
Encoded date : UTC 2019-04-15 14:27:51
Writing application : mkvmerge v32.0.0 ('Astral Progressions') 64-bit
Writing library : libebml v1.3.7 + libmatroska v1.5.0

Video
ID : 1
Format : AVC
Format/Info : Advanced Video Codec
Format profile : High@L4.1
Format settings : CABAC / 4 Ref Frames
Format settings, CABAC : Yes
Format settings, RefFrames : 4 frames
Codec ID : V_MPEG4/ISO/AVC
Duration : 1 h 59 min
Bit rate : 14.2 Mb/s
Width : 1 920 pixels
Height : 1 036 pixels
Display aspect ratio : 1.85:1
Frame rate mode : Constant
Frame rate : 23.976 (24000/1001) FPS
Color space : YUV
Chroma subsampling : 4:2:0
Bit depth : 8 bits
Scan type : Progressive
Bits/(Pixel*Frame) : 0.297
Stream size : 11.9 GiB (94%)
Default : Yes
Forced : No
Color range : Limited
Color primaries : BT.709
Transfer characteristics : BT.709
Matrix coefficients : BT.709

Audio
ID : 2
Format : AC-3
Format/Info : Audio Coding 3
Format settings, Endianness : Big
Codec ID : A_AC3
Duration : 1 h 59 min
Bit rate mode : Constant
Bit rate : 640 kb/s
Channel(s) : 6 channels
Channel positions : Front: L C R, Side: L R, LFE
Sampling rate : 48.0 kHz
Frame rate : 31.250 FPS (1536 SPF)
Bit depth : 16 bits
Compression mode : Lossy
Stream size : 549 MiB (4%)
Title : English
Language : English
Service kind : Complete Main
Default : Yes
Forced : No

Text
ID : 3
Format : UTF-8
Codec ID : S_TEXT/UTF8
Codec ID/Info : UTF-8 Plain Text
Title : English
Language : English
Default : Yes
Forced : No

Menu
00:00:00.000 : :Chapter 01
00:08:10.156 : :Chapter 02
00:15:01.526 : :Chapter 03
00:20:33.149 : :Chapter 04
00:29:04.326 : :Chapter 05
00:39:58.938 : :Chapter 06
00:45:10.082 : :Chapter 07
00:53:01.095 : :Chapter 08
00:55:06.637 : :Chapter 09
01:06:15.930 : :Chapter 10
01:15:34.989 : :Chapter 11
01:19:08.494 : :Chapter 12
01:27:20.986 : :Chapter 13
01:37:14.620 : :Chapter 14
01:46:39.977 : :Chapter 15
01:52:13.560 : :Chapter 16





Berlin, I Love You (2019)


Berlin, I Love You (2019)


Berlin, I Love You (2019)


Berlin, I Love You (2019)


Berlin, I Love You (2019)