Beyond the Hills / Dupa dealuri (2012) [Criterion Collection]

Posted By: RSU75
1080p (FullHD) / BDRip IMDb
Beyond the Hills / Dupa dealuri (2012) [Criterion Collection]

Beyond the Hills / Dupa dealuri (2012) [Criterion Collection, Spine #923]
BDRip 1080p | MKV | AVC 1920x804, ~ 3.7 Mbps | 2hr 32mn | 5.50 GB | Romanian: DTS, 6 ch, 1510 kbps
BDRip 720p | MKV | AVC 1280x536, ~ 2.6 Mbps | 2hr 32mn | 3.22 GB | Romanian: AC3, 6 ch, 448 kbps
Subtitles: English
Genre: Drama
IMDB Rating: 7.6/10 (10.113 votes)


Director: Cristian Mungiu
Writers: Cristian Mungiu (screenplay), Tatiana Niculescu-Bran (inspired by non-fiction novels of)
Stars: Cosmina Stratan, Cristina Flutur, Valeriu Andriutã

With this arresting drama based on notorious real-life events, Cristian Mungiu mounts a complex inquiry into faith, fanaticism, and indifference. At a desolate Romanian monastery, a young novice nun, Voichia (Cosmina Stratan), reunites with her former companion Alina (Cristina Flutur), who plans to take her to Germany. But Voichița proves unwilling to abandon her calling, and Alina becomes increasingly desperate to reclaim her devotion, putting the outsider at odds with the monastery’s ascetic priest—and precipitating a painfully misguided, brutal attempt to save her soul. A naturalistic tragedy with the dark force of a folktale, anchored by the fraught dynamic between cinema newcomers Flutur and Stratan (who shared the best actress prize at Cannes), Beyond the Hills bears powerful witness to individuals at cross-purposes and institutions ill-equipped to help those most in need.


Extras:
- None




General
Unique ID : 220277639808369925301563317933787623731 (0xA5B7EE256D46A0E58DFD35E764B8B133)
Complete name : F:\BeyondTheHills.12.Cr.1p\BeyondTheHills.12.Cr.1p.mkv
Format : Matroska
Format version : Version 4 / Version 2
File size : 5.50 GiB
Duration : 2 h 32 min
Overall bit rate : 5 173 kb/s
Movie name : Release RSU75
Encoded date : UTC 2019-01-08 13:20:51
Writing application : mkvmerge v6.6.0 ('The Edge Of The In Between') built on Dec 1 2013 17:55:00
Writing library : libebml v1.3.0 + libmatroska v1.4.1

Video
ID : 1
Format : AVC
Format/Info : Advanced Video Codec
Format profile : High@L4.1
Format settings : CABAC / 4 Ref Frames
Format settings, CABAC : Yes
Format settings, ReFrames : 4 frames
Codec ID : V_MPEG4/ISO/AVC
Duration : 2 h 32 min
Bit rate : 3 700 kb/s
Width : 1 920 pixels
Height : 804 pixels
Display aspect ratio : 2.40:1
Frame rate mode : Constant
Frame rate : 23.976 (23976/1000) FPS
Color space : YUV
Chroma subsampling : 4:2:0
Bit depth : 8 bits
Scan type : Progressive
Bits/(Pixel*Frame) : 0.100
Stream size : 3.79 GiB (69%)
Writing library : x264 core 148 r2643 5c65704
Encoding settings : cabac=1 / ref=4 / deblock=1:0:0 / analyse=0x3:0x113 / me=umh / subme=8 / psy=1 / psy_rd=1.00:0.00 / mixed_ref=1 / me_range=24 / chroma_me=1 / trellis=1 / 8x8dct=1 / cqm=0 / deadzone=21,11 / fast_pskip=1 / chroma_qp_offset=-2 / threads=3 / lookahead_threads=1 / sliced_threads=0 / nr=0 / decimate=1 / interlaced=0 / bluray_compat=0 / constrained_intra=0 / bframes=3 / b_pyramid=0 / b_adapt=2 / b_bias=0 / direct=3 / weightb=1 / open_gop=0 / weightp=2 / keyint=250 / keyint_min=25 / scenecut=40 / intra_refresh=0 / rc_lookahead=40 / rc=abr / mbtree=1 / bitrate=3700 / ratetol=1.0 / qcomp=0.60 / qpmin=10 / qpmax=51 / qpstep=4 / ip_ratio=1.41 / aq=1:1.00
Language : English
Default : Yes
Forced : No

Audio
ID : 2
Format : DTS
Format/Info : Digital Theater Systems
Codec ID : A_DTS
Duration : 2 h 32 min
Bit rate mode : Constant
Bit rate : 1 509 kb/s
Channel(s) : 6 channels
Channel layout : C L R Ls Rs LFE
Sampling rate : 48.0 kHz
Frame rate : 93.750 FPS (512 SPF)
Bit depth : 24 bits
Compression mode : Lossy
Stream size : 1.61 GiB (29%)
Language : Romanian
Default : Yes
Forced : No

Text
ID : 3
Format : PGS
Muxing mode : zlib
Codec ID : S_HDMV/PGS
Codec ID/Info : Picture based subtitle format used on BDs/HD-DVDs
Language : English
Default : Yes
Forced : No

Menu
00:00:00.000 : en:Chapter 01
00:04:34.357 : en:Chapter 02
00:16:07.716 : en:Chapter 03
00:20:42.449 : en:Chapter 04
00:28:15.360 : en:Chapter 05
00:34:20.308 : en:Chapter 06
00:37:56.565 : en:Chapter 07
00:45:01.156 : en:Chapter 08
00:52:34.985 : en:Chapter 09
00:58:02.645 : en:Chapter 10
01:06:47.169 : en:Chapter 11
01:12:56.205 : en:Chapter 12
01:20:02.088 : en:Chapter 13
01:29:40.208 : en:Chapter 14
01:38:19.268 : en:Chapter 15
01:45:43.628 : en:Chapter 16
01:55:01.185 : en:Chapter 17
02:00:01.110 : en:Chapter 18
02:08:50.139 : en:Chapter 19
02:12:27.314 : en:Chapter 20
02:19:23.897 : en:Chapter 21
02:25:12.620 : en:Chapter 22
02:29:37.802 : en:Chapter 23





General
Unique ID : 244245242927033982224747030901853361497 (0xB7BFEC36E6CB05019BEFD94C7F759559)
Complete name : F:\BeyondTheHills.12.Cr.7p\BeyondTheHills.12.Cr.7p.mkv
Format : Matroska
Format version : Version 4 / Version 2
File size : 3.22 GiB
Duration : 2 h 32 min
Overall bit rate : 3 024 kb/s
Movie name : Release RSU75
Encoded date : UTC 2019-01-08 16:10:30
Writing application : mkvmerge v6.6.0 ('The Edge Of The In Between') built on Dec 1 2013 17:55:00
Writing library : libebml v1.3.0 + libmatroska v1.4.1

Video
ID : 1
Format : AVC
Format/Info : Advanced Video Codec
Format profile : High@L4.1
Format settings : CABAC / 4 Ref Frames
Format settings, CABAC : Yes
Format settings, ReFrames : 4 frames
Codec ID : V_MPEG4/ISO/AVC
Duration : 2 h 32 min
Bit rate : 2 600 kb/s
Width : 1 280 pixels
Height : 536 pixels
Display aspect ratio : 2.40:1
Frame rate mode : Constant
Frame rate : 23.976 (23976/1000) FPS
Color space : YUV
Chroma subsampling : 4:2:0
Bit depth : 8 bits
Scan type : Progressive
Bits/(Pixel*Frame) : 0.158
Stream size : 2.68 GiB (83%)
Writing library : x264 core 148 r2643 5c65704
Encoding settings : cabac=1 / ref=4 / deblock=1:0:0 / analyse=0x3:0x113 / me=umh / subme=8 / psy=1 / psy_rd=1.00:0.00 / mixed_ref=1 / me_range=24 / chroma_me=1 / trellis=1 / 8x8dct=1 / cqm=0 / deadzone=21,11 / fast_pskip=1 / chroma_qp_offset=-2 / threads=3 / lookahead_threads=1 / sliced_threads=0 / nr=0 / decimate=1 / interlaced=0 / bluray_compat=0 / constrained_intra=0 / bframes=3 / b_pyramid=0 / b_adapt=2 / b_bias=0 / direct=3 / weightb=1 / open_gop=0 / weightp=2 / keyint=250 / keyint_min=25 / scenecut=40 / intra_refresh=0 / rc_lookahead=40 / rc=abr / mbtree=1 / bitrate=2600 / ratetol=1.0 / qcomp=0.60 / qpmin=10 / qpmax=51 / qpstep=4 / ip_ratio=1.41 / aq=1:1.00
Language : English
Default : Yes
Forced : No

Audio
ID : 2
Format : AC-3
Format/Info : Audio Coding 3
Commercial name : Dolby Digital
Codec ID : A_AC3
Duration : 2 h 32 min
Bit rate mode : Constant
Bit rate : 448 kb/s
Channel(s) : 6 channels
Channel layout : L R C LFE Ls Rs
Sampling rate : 48.0 kHz
Frame rate : 31.250 FPS (1536 SPF)
Bit depth : 16 bits
Compression mode : Lossy
Stream size : 488 MiB (15%)
Language : Romanian
Service kind : Complete Main
Default : Yes
Forced : No

Text
ID : 3
Format : PGS
Muxing mode : zlib
Codec ID : S_HDMV/PGS
Codec ID/Info : Picture based subtitle format used on BDs/HD-DVDs
Language : English
Default : Yes
Forced : No

Menu
00:00:00.000 : en:Chapter 01
00:04:34.357 : en:Chapter 02
00:16:07.716 : en:Chapter 03
00:20:42.449 : en:Chapter 04
00:28:15.360 : en:Chapter 05
00:34:20.308 : en:Chapter 06
00:37:56.565 : en:Chapter 07
00:45:01.156 : en:Chapter 08
00:52:34.985 : en:Chapter 09
00:58:02.645 : en:Chapter 10
01:06:47.169 : en:Chapter 11
01:12:56.205 : en:Chapter 12
01:20:02.088 : en:Chapter 13
01:29:40.208 : en:Chapter 14
01:38:19.268 : en:Chapter 15
01:45:43.628 : en:Chapter 16
01:55:01.185 : en:Chapter 17
02:00:01.110 : en:Chapter 18
02:08:50.139 : en:Chapter 19
02:12:27.314 : en:Chapter 20
02:19:23.897 : en:Chapter 21
02:25:12.620 : en:Chapter 22
02:29:37.802 : en:Chapter 23




Screenshots 1080p (click to enlarge to original size):

Beyond the Hills / Dupa dealuri (2012) [Criterion 			  		   	  			     	 			   		  	   		   	  		  	   	 			   		  	   		  		  			  	  	 			   		 	 	  		 		 			 Collection]

Beyond the Hills / Dupa dealuri (2012) [Criterion Collection]

Beyond the Hills / Dupa dealuri (2012) [Criterion Collection]


Beyond the Hills / Dupa dealuri (2012) [Criterion Collection]



Screenshots 720p (click to enlarge to original size):

Beyond the Hills / Dupa dealuri (2012) [Criterion Collection]




–––––––––––––––––––––––––––––––––––––––-
>>> "Criterion Collection" <<<OR >>> "BDRip" <<<OR
>>> "Drama" <<<OR >>> "Romanian" <<<
–––––––––––––––––––––––––––––––––––––––-
>>> Visit Blog RSU75 Here <<<
–––––––––––––––––––––––––––––––––––––––-