Beyond the Myth: A Film About Pit Bulls and Breed Discrimination (2010)

Posted By: vivid23
Beyond the Myth: A Film About Pit Bulls and Breed Discrimination (2010)

Beyond the Myth: A Film About Pit Bulls and Breed Discrimination (2010)
DVDrip | 320x240 | AVI/XviD @ 618 Kbps | 94mn | Audio: English MP3 32 kbps, 2 channels | Subs: None | 507 MB
Genre: Documentary

Beyond the Myth is a film about dogs commonly referred to as "pit bulls" and those who love and defend these breeds. It explores the contributing factors behind the public's generalized fear of "pit bulls," and examines the conflict existing between advocates and opponents of breed discriminatory laws, as carried out in three cities that ban pit bull-type dogs: Denver, Miami, and Cincinnati-along with San Francisco, which requires the animals to be spayed and neutered.

More info

Video
ID : 0
Format : MPEG-4 Visual
Format profile : Simple@L3
Format settings, BVOP : No
Format settings, QPel : No
Format settings, GMC : No warppoints
Format settings, Matrix : Default (H.263)
Codec ID : XVID
Codec ID/Hint : XviD
Duration : 1h 34mn
Bit rate : 618 Kbps
Width : 320 pixels
Height : 240 pixels
Display aspect ratio : 4:3
Frame rate : 25.000 fps
Color space : YUV
Chroma subsampling : 4:2:0
Bit depth : 8 bits
Scan type : Progressive
Compression mode : Lossy
Bits/(Pixel*Frame) : 0.322
Stream size : 417 MiB (82%)
Writing library : XviD 63

Audio
ID : 1
Format : MPEG Audio
Format version : Version 1
Format profile : Layer 3
Mode : Joint stereo
Mode extension : MS Stereo
Codec ID : 55
Codec ID/Hint : MP3
Duration : 1h 34mn
Bit rate mode : Constant
Bit rate : 32.0 Kbps
Channel(s) : 2 channels
Sampling rate : 44.1 KHz
Compression mode : Lossy
Stream size : 81.7 MiB (16%)
Alignment : Aligned on interleaves
Interleave, duration : 26 ms (0.65 video frame)
Interleave, preload duration : 137 ms
Writing library : LAME3.98.4


Beyond the Myth: A Film About Pit Bulls and Breed Discrimination (2010)

Beyond the Myth: A Film About Pit Bulls and Breed Discrimination (2010)


Feel free to contact me when links are dead