Billy Elliot (2000)

Posted By: NaVi7
Billy Elliot (2000)

Billy Elliot (2000)
BDRip 720p | MKV / AVC, 4132 Kbps | 1280x696 | 1h 50mn | 4.37 GB
English: DTS, 1509 Kbps (6 ch) | Subtitles: English
Genre: Comedy | Drama | Music

County Durham, during the endless, violent 1984 strike against the Thatcher closure of British coal mines. Widower Jackie Elliot and his firstborn, fellow miner Tony, take a dim view of 11 year-old second son Billy's poor record in boxing class, which worsens when they discover he sneakily transferred to the neighboring, otherwise girls-only-attended ballet class. Only one schoolmate, closet-gay Michael Caffrey, encourages Billy's desire, aroused by the teacher, who judged him talented enough for private lesson, to train and try out for the world-renowned Royal Ballet audition. Only the prospect of a fancy career unimagined in the pauper quarter may twist pa and big brother's opposition to indispensable support.

imdb - Nominated for 3 Oscars. Another 55 wins & 56 nominations.

General
Unique ID : 223805657655657742958310629929966690085 (0xA85F66DB11B82DF796F669563D3CDF25)
Complete name : Billy.Elliot.2000.720p.BluRay.x264-SiNNERS.mkv
Format : Matroska
Format version : Version 2
File size : 4.37 GiB
Duration : 1h 50mn
Overall bit rate : 5 639 Kbps
Encoded date : UTC 2011-07-20 12:10:04
Writing application : mkvmerge v4.9.1 ('Ich will') built on Jul 11 2011 23:53:15
Writing library : libebml v1.2.1 + libmatroska v1.1.1

Video
ID : 1
Format : AVC
Format/Info : Advanced Video Codec
Format profile : High@L4.1
Format settings, CABAC : Yes
Format settings, ReFrames : 5 frames
Muxing mode : Header stripping
Codec ID : V_MPEG4/ISO/AVC
Duration : 1h 50mn
Bit rate : 4 132 Kbps
Width : 1 280 pixels
Height : 696 pixels
Display aspect ratio : 1.85:1
Frame rate mode : Constant
Frame rate : 23.976 fps
Color space : YUV
Chroma subsampling : 4:2:0
Bit depth : 8 bits
Scan type : Progressive
Bits/(Pixel*Frame) : 0.193
Stream size : 3.11 GiB (71%)
Writing library : x264 core 116 r2019 9cc407d
Encoding settings : cabac=1 / ref=5 / deblock=1:0:0 / analyse=0x3:0x113 / me=umh / subme=7 / psy=1 / psy_rd=1.00:0.00 / mixed_ref=1 / me_range=16 / chroma_me=1 / trellis=1 / 8x8dct=1 / cqm=0 / deadzone=21,11 / fast_pskip=0 / chroma_qp_offset=-2 / threads=18 / sliced_threads=0 / nr=0 / decimate=1 / interlaced=0 / bluray_compat=0 / constrained_intra=0 / bframes=3 / b_pyramid=2 / b_adapt=1 / b_bias=0 / direct=1 / weightb=1 / open_gop=0 / weightp=2 / keyint=250 / keyint_min=23 / scenecut=40 / intra_refresh=0 / rc_lookahead=40 / rc=2pass / mbtree=1 / bitrate=4132 / ratetol=1.0 / qcomp=0.60 / qpmin=0 / qpmax=69 / qpstep=4 / cplxblur=20.0 / qblur=0.5 / ip_ratio=1.40 / aq=1:1.00
Language : English
Default : Yes
Forced : No

Audio
ID : 2
Format : DTS
Format/Info : Digital Theater Systems
Mode : 16
Format settings, Endianness : Big
Muxing mode : Header stripping
Codec ID : A_DTS
Duration : 1h 50mn
Bit rate mode : Constant
Bit rate : 1 509 Kbps
Channel(s) : 6 channels
Channel positions : Front: L C R, Side: L R, LFE
Sampling rate : 48.0 KHz
Bit depth : 24 bits
Compression mode : Lossy
Stream size : 1.17 GiB (27%)
Language : English
Default : Yes
Forced : No

Text
ID : 3
Format : UTF-8
Codec ID : S_TEXT/UTF8
Codec ID/Info : UTF-8 Plain Text
Language : English
Default : No
Forced : No


screenshots:

Billy Elliot (2000)

Billy Elliot (2000)

Billy Elliot (2000)


Welcome to My Blog!

Subscribe to My Newsletter!

No more mirrors!

If you want to download it, but found out that links are dead, just leave a comment or PM me!
Download Links:
Uploaded | Rapidgator
Links to RapidGator and Uploaded are inside the html file. Download the file and open it in your browser.