Biography: Gordon Ramsay (2011)

Posted By: Tavaz
720p (HD) / HDTV IMDb
Biography: Gordon Ramsay (2011)

Biography: Gordon Ramsay (2011)
HDTV | MKV | 1280x720 | English | H264 @ 2183 kbps | AC-3 @ 384 kbps | 44 min 58 s | 827 MiB
Subtitles: English
Genre: Documentary



biography-gordon.ramsay.2011.720p.hdtv.x264-w4f.mkv (826.7 MB)



General
Unique ID : 217326171540288125934374070920726732337 (0xA37F7F868D43E6E9A0691F2AE9B05E31)
Complete name : ./biography-gordon.ramsay.2011.720p.hdtv.x264-w4f.mkv
Format : Matroska
Format version : Version 4 / Version 2
File size : 827 MiB
Duration : 44 min 58 s
Overall bit rate : 2 570 kb/s
Encoded date : UTC 2018-01-15 19:23:04
Writing application : mkvmerge v9.7.1 ('Pandemonium') 64bit
Writing library : libebml v1.3.4 + libmatroska v1.4.5

Video
ID : 1
Format : AVC
Format/Info : Advanced Video Codec
Format profile : High@L4.1
Format settings : CABAC / 5 Ref Frames
Format settings, CABAC : Yes
Format settings, RefFrames : 5 frames
Codec ID : V_MPEG4/ISO/AVC
Duration : 44 min 58 s
Bit rate : 2 183 kb/s
Width : 1 280 pixels
Height : 720 pixels
Display aspect ratio : 16:9
Frame rate mode : Constant
Frame rate : 29.970 (30000/1001) FPS
Color space : YUV
Chroma subsampling : 4:2:0
Bit depth : 8 bits
Scan type : Progressive
Bits/(Pixel*Frame) : 0.079
Stream size : 702 MiB (85%)
Writing library : x264 core 155 r2893 b00bcaf
Encoding settings : cabac=1 / ref=5 / deblock=1:0:0 / analyse=0x3:0x113 / me=hex / subme=8 / psy=1 / psy_rd=1.00:0.00 / mixed_ref=1 / me_range=16 / chroma_me=1 / trellis=2 / 8x8dct=1 / cqm=0 / deadzone=21,11 / fast_pskip=1 / chroma_qp_offset=-2 / threads=12 / lookahead_threads=2 / sliced_threads=0 / nr=0 / decimate=1 / interlaced=0 / bluray_compat=0 / constrained_intra=0 / bframes=3 / b_pyramid=2 / b_adapt=1 / b_bias=0 / direct=3 / weightb=1 / open_gop=0 / weightp=2 / keyint=250 / keyint_min=25 / scenecut=40 / intra_refresh=0 / rc_lookahead=50 / rc=crf / mbtree=1 / crf=20.0 / qcomp=0.60 / qpmin=0 / qpmax=69 / qpstep=4 / ip_ratio=1.40 / aq=1:1.00
Default : Yes
Forced : No

Audio
ID : 2
Format : AC-3
Format/Info : Audio Coding 3
Format settings, Endianness : Big
Codec ID : A_AC3
Duration : 44 min 58 s
Bit rate mode : Constant
Bit rate : 384 kb/s
Channel(s) : 6 channels
Channel positions : Front: L C R, Side: L R, LFE
Sampling rate : 48.0 kHz
Frame rate : 31.250 FPS (1536 SPF)
Bit depth : 16 bits
Compression mode : Lossy
Stream size : 124 MiB (15%)
Language : English
Service kind : Complete Main
Default : Yes
Forced : No

Text
ID : 3
Format : UTF-8
Codec ID : S_TEXT/UTF8
Codec ID/Info : UTF-8 Plain Text
Duration : 44 min 57 s
Bit rate : 257 b/s
Count of elements : 1745
Stream size : 84.7 KiB (0%)
Language : English
Default : No
Forced : No





Biography: Gordon Ramsay (2011)


Biography: Gordon Ramsay (2011)


Biography: Gordon Ramsay (2011)