Please register here if you want to download anything!

If domain in your address bar is different from the list below
PLEASE LEAVE THAT SITE IMMEDIATELY
❗IT'S A DANGEROUS FAKE❗



Spicy Magazines for Men! ;-)

BBC - Birds of Paradise: The Ultimate Quest (2017)

Posted By: Tutorial
BBC - Birds of Paradise: The Ultimate Quest (2017)

BBC - Birds of Paradise: The Ultimate Quest (2017)
HDTV | 1280 x 720 | .MP4/AVC @ 3470 Kbps | 2x~58mn | 2.97 GB
Audio: English AAC 160 Kbps, 2 channels | Subs: English
Genre: Documentary, Nature

Frank Gardner and Benedict Allen journey through Papua New Guinea. Gardner is pursuing a lifelong dream to see birds of paradise, while Allen is returning to the tribe he abandoned 30 years ago.
Part 1:
Part one of two. Thirty years ago explorer Benedict Allen lived in Papua New Guinea with the Niowra, a remote people. Broadcast journalist Frank Gardner has always wished to see wild birds of paradise, so Benedict resolves to take him along. The duo set out through some of the most inhospitable terrain on the planet, negotiating swamps, mountains and crocodile-infested waters, heading into the cloud forest. Despite Frank requiring the use of a wheelchair following a shooting incident in 2004, Benedict determines to get him to their destination.

Part 2:

Part two of two. Explorer Benedict Allen is determined to get disabled journalist Frank Gardner into the wilds of Papua New Guinea, despite having to grapple with Frank's wheelchair. As the terrain gets even tougher to negotiate, the pair know they must make an epic journey into the highlands, crossing through two tribal territories to achieve their objective. However, as Frank gets close to realising his dream of seeing wild birds of paradise up-close, his old injuries return to haunt him and the expedition hangs on a knife edge.

also You can look my other last: Nature-posts

General
Complete name : BBC.Birds.of.Paradise.The.Ultimate.Quest.Series.1.1of2
Format : MPEG-4
Format profile : Base Media
Codec ID : isom
File size : 1.49 GiB
Duration : 58mn 37s
Overall bit rate mode : Variable
Overall bit rate : 3 635 Kbps
Encoded date : UTC 2017-02-11 00:13:48
Tagged date : UTC 2017-02-11 00:13:48
Writing application : My MP4Box GUI 0.6.0.6

Video
ID : 1
Format : AVC
Format/Info : Advanced Video Codec
Format profile : High@L4.1
Format settings, CABAC : Yes
Format settings, ReFrames : 4 frames
Codec ID : avc1
Codec ID/Info : Advanced Video Coding
Duration : 58mn 37s
Bit rate : 3 470 Kbps
Maximum bit rate : 13.7 Mbps
Width : 1 280 pixels
Height : 720 pixels
Display aspect ratio : 16:9
Frame rate mode : Constant
Frame rate : 25.000 fps
Color space : YUV
Chroma subsampling : 4:2:0
Bit depth : 8 bits
Scan type : Progressive
Bits/(Pixel*Frame) : 0.151
Stream size : 1.42 GiB (95%)
Title : BBC.Birds.of.Paradise.The.Ultimate.Quest.Series.1.1of2.720p.HDTV.x264.AAC
Writing library : x264 core 142 r2479 dd79a61
Encoding settings : cabac=1 / ref=1 / deblock=1:0:0 / analyse=0x3:0x3 / me=dia / subme=1 / psy=1 / psy_rd=1.00:0.00 / mixed_ref=0 / me_range=16 / chroma_me=1 / trellis=0 / 8x8dct=1 / cqm=0 / deadzone=21,11 / fast_pskip=1 / chroma_qp_offset=0 / threads=6 / lookahead_threads=1 / sliced_threads=0 / nr=0 / decimate=1 / interlaced=0 / bluray_compat=0 / constrained_intra=0 / bframes=3 / b_pyramid=2 / b_adapt=1 / b_bias=0 / direct=1 / weightb=1 / open_gop=0 / weightp=1 / keyint=250 / keyint_min=25 / scenecut=40 / intra_refresh=0 / rc_lookahead=0 / rc=crf / mbtree=0 / crf=22.0 / qcomp=0.60 / qpmin=0 / qpmax=69 / qpstep=4 / vbv_maxrate=62500 / vbv_bufsize=78125 / crf_max=0.0 / nal_hrd=none / filler=0 / ip_ratio=1.40 / pb_ratio=1.30 / aq=1:1.00
Encoded date : UTC 2017-02-10 23:20:09
Tagged date : UTC 2017-02-11 00:14:06
Color primaries : BT.709-5, BT.1361, IEC 61966-2-4, SMPTE RP177
Transfer characteristics : BT.709-5, BT.1361
Matrix coefficients : BT.709-5, BT.1361, IEC 61966-2-4 709, SMPTE RP177

Audio
ID : 2
Format : AAC
Format/Info : Advanced Audio Codec
Format profile : LC
Codec ID : 40
Duration : 58mn 37s
Bit rate mode : Variable
Bit rate : 160 Kbps
Maximum bit rate : 164 Kbps
Channel(s) : 2 channels
Channel positions : Front: L R
Sampling rate : 48.0 KHz
Compression mode : Lossy
Stream size : 67.2 MiB (4%)
Title : BBC.Birds.of.Paradise.The.Ultimate.Quest.Series.1.1of2.720p.HDTV.x264.AAC
Language : English
Encoded date : UTC 2017-02-11 00:13:59
Tagged date : UTC 2017-02-11 00:14:06

Text
ID : 3
Format : Timed text
Codec ID : tx3g
Duration : 58mn 4s
Bit rate mode : Variable
Bit rate : 98 bps
Stream size : 41.6 KiB (0%)
Title : BBC.Birds.of.Paradise.The.Ultimate.Quest.Series.1.1of2.720p.HDTV.x264.AAC
Encoded date : UTC 2017-02-11 00:14:06
Tagged date : UTC 2017-02-11 00:14:06
Screenshots

BBC - Birds of Paradise: The Ultimate Quest (2017)

BBC - Birds of Paradise: The Ultimate Quest (2017)

Welcome to my blog - daily update!

BBC - Birds of Paradise: The Ultimate Quest (2017)