Black Hawk Down (2001) [Remastered, Extended]

Posted By: Without
1080p (FullHD) / BDRip IMDb
Black Hawk Down (2001) [Remastered, Extended]

Black Hawk Down (2001)
BRRip | AVI | 2 h 31 min | 1.91 GB | 720x300 | XviD@1599 kb/s | English MP3@192 kb/s, 2 ch
BDRip 1080p | MKV | 2 h 31 min | 15.5 GB | 1920x800 | AVC@13.1 Mb/s | English DTS@1509 kb/s, 6 ch
Subs: English
Genre: Drama | History | War

160 elite U.S. soldiers drop into Somalia to capture two top lieutenants of a renegade warlord and find themselves in a desperate battle with a large force of heavily-armed Somalis.

IMDB - Won 2 Oscars. Another 9 wins & 37 nominations.


General
Black.Hawk.Down.2001.EXTENDED.REMASTERED.BRRip.XviD.MP3-XVID.avi
Format : AVI
Format/Info : Audio Video Interleave
Format profile : OpenDML
File size : 1.91 GB
Duration : 2 h 31 min
Overall bit rate : 1804 kb/s
Writing application : Lavf58.20.100

Video
ID : 0
Format : MPEG-4 Visual
Format profile : Simple@L5
Format settings, BVOP : No
Format settings, QPel : No
Format settings, GMC : No warppoints
Format settings, Matrix : Default (H.263)
Codec ID : XVID
Codec ID/Hint : XviD
Duration : 2 h 31 min
Bit rate : 1599 kb/s
Width : 720 pixels
Height : 300 pixels
Display aspect ratio : 2.40:1
Frame rate : 23.976 (24000/1001) FPS
Color space : YUV
Chroma subsampling : 4:2:0
Bit depth : 8 bits
Scan type : Progressive
Compression mode : Lossy
Bits/(Pixel*Frame) : 0.309
Stream size : 1.70 GB (89%)
Writing library : Lavc58.35.100

Audio
ID : 1
Format : MPEG Audio
Format version : Version 1
Format profile : Layer 3
Mode : Joint stereo
Mode extension : MS Stereo
Codec ID : 55
Codec ID/Hint : MP3
Duration : 2 h 31 min
Bit rate mode : Constant
Bit rate : 192 kb/s
Channel(s) : 2 channels
Sampling rate : 48.0 kHz
Compression mode : Lossy
Stream size : 209 MB (11%)
Alignment : Aligned on interleaves
Interleave, duration : 24 ms (0.58 video frame)
Interleave, preload duration : 24 ms
Writing library : LAME3.99 d«¸»H©


General
Black.Hawk.Down.2001.EXTENDED.REMASTERED.1080p.BluRay.x264.DTS-SWTYBLZ.mkv
Format : Matroska
Format version : Version 4 / Version 2
File size : 15.5 GB
Duration : 2 h 31 min
Overall bit rate : 14.7 Mb/s
Movie name : Black.Hawk.Down.2001.EXTENDED.REMASTERED.1080p.BluRay.x264.DTS-SWTYBLZ
Encoded date : UTC 2019-05-01 14:55:07
Writing application : mkvmerge v33.1.0 ('Primrose') 64-bit
Writing library : libebml v1.3.7 + libmatroska v1.5.0
Cover : Yes
Attachments : small_cover.jpg / small_cover_land.jpg / cover.jpg / cover_land.jpg

Video
ID : 1
Format : AVC
Format/Info : Advanced Video Codec
Format profile : High@L4.1
Format settings, CABAC : Yes
Format settings, ReFrames : 5 frames
Codec ID : V_MPEG4/ISO/AVC
Duration : 2 h 31 min
Bit rate : 13.1 Mb/s
Width : 1920 pixels
Height : 800 pixels
Display aspect ratio : 2.40:1
Frame rate mode : Constant
Frame rate : 23.976 (24000/1001) FPS
Color space : YUV
Chroma subsampling : 4:2:0
Bit depth : 8 bits
Scan type : Progressive
Bits/(Pixel*Frame) : 0.357
Stream size : 13.9 GB (90%)
Title : Black.Hawk.Down.2001.EXTENDED.REMASTERED.1080p.BluRay.x264.DTS-SWTYBLZ
Writing library : x264 core 157 r2935 545de2f
Encoding settings : cabac=1 / ref=5 / deblock=1:-1:-1 / analyse=0x3:0x133 / me=umh / subme=10 / psy=1 / psy_rd=1.00:0.15 / mixed_ref=1 / me_range=48 / chroma_me=1 / trellis=2 / 8x8dct=1 / cqm=0 / deadzone=21,11 / fast_pskip=1 / chroma_qp_offset=-3 / threads=25 / lookahead_threads=4 / sliced_threads=0 / nr=0 / decimate=0 / interlaced=0 / bluray_compat=0 / constrained_intra=0 / bframes=8 / b_pyramid=2 / b_adapt=2 / b_bias=0 / direct=3 / weightb=1 / open_gop=0 / weightp=2 / keyint=250 / keyint_min=23 / scenecut=40 / intra_refresh=0 / rc_lookahead=60 / rc=crf / mbtree=1 / crf=21.0 / qcomp=0.60 / qpmin=0 / qpmax=69 / qpstep=4 / ip_ratio=1.40 / aq=1:1.00
Language : English
Default : Yes
Forced : No

Audio
ID : 2
Format : DTS
Format/Info : Digital Theater Systems
Mode : 16
Format settings, Endianness : Big
Codec ID : A_DTS
Duration : 2 h 31 min
Bit rate mode : Constant
Bit rate : 1509 kb/s
Channel(s) : 6 channels
Channel positions : Front: L C R, Side: L R, LFE
Sampling rate : 48.0 kHz
Frame rate : 93.750 FPS (512 spf)
Bit depth : 24 bits
Compression mode : Lossy
Stream size : 1.60 GB (10%)
Title : Black.Hawk.Down.2001.EXTENDED.REMASTERED.1080p.BluRay.x264.DTS-SWTYBLZ
Language : English
Default : Yes
Forced : No

Text #1
ID : 3
Format : UTF-8
Codec ID : S_TEXT/UTF8
Codec ID/Info : UTF-8 Plain Text
Duration : 1 h 50 min
Bit rate : 0 b/s
Count of elements : 12
Stream size : 238 Bytes (0%)
Title : FORCED
Language : English
Default : Yes
Forced : Yes

Text #2
ID : 4
Format : UTF-8
Codec ID : S_TEXT/UTF8
Codec ID/Info : UTF-8 Plain Text
Duration : 2 h 24 min
Bit rate : 50 b/s
Count of elements : 1687
Stream size : 53.5 KiB (0%)
Language : English
Default : No
Forced : No

Text #3
ID : 5
Format : UTF-8
Codec ID : S_TEXT/UTF8
Codec ID/Info : UTF-8 Plain Text
Duration : 2 h 30 min
Bit rate : 53 b/s
Count of elements : 1923
Stream size : 58.5 KiB (0%)
Title : SDH
Language : English
Default : No
Forced : No

Menu
00:00:00.000 : en:Chapter 01
00:21:48.682 : en:Chapter 02
00:31:39.939 : en:Chapter 03
00:39:19.940 : en:Chapter 04
00:43:25.519 : en:Chapter 05
00:54:04.074 : en:Chapter 06
01:02:18.317 : en:Chapter 07
01:10:22.051 : en:Chapter 08
01:28:36.811 : en:Chapter 09
01:30:26.671 : en:Chapter 10
01:43:36.376 : en:Chapter 11
01:48:49.648 : en:Chapter 12
02:02:18.873 : en:Chapter 13
02:06:20.489 : en:Chapter 14
02:11:28.630 : en:Chapter 15
02:20:13.029 : en:Chapter 16



BRRip Screenshots

Black Hawk Down (2001) [Remastered, Extended]

Black Hawk Down (2001) [Remastered, Extended]

Black Hawk Down (2001) [Remastered, Extended]

Black Hawk Down (2001) [Remastered, Extended]


BDRip 1080p Screenshots

Black Hawk Down (2001) [Remastered, Extended]

Black Hawk Down (2001) [Remastered, Extended]

Black Hawk Down (2001) [Remastered, Extended]

Black Hawk Down (2001) [Remastered, Extended]


Come Visit My Blog (•‿•)