Tags
Language
Tags

Black Widow (2021)

Posted By: Without
1080p (FullHD) / BDRip IMDb
Black Widow (2021)

Black Widow (2021)
BDRip 720p | MKV | 2 h 13 min | 4.95 GB | 1280x536 | AVC@4650 kb/s | English AC3@640 kb/s, 6 ch
BDRip 1080p | MKV | 2 h 13 min | 14.0 GB | 1920x804 | AVC@13.5 Mb/s | English AC3@500 b/s, 8 ch
Subs: English, Français, Dansk, Deutsch, Español, Italiano
日本語, Norsk, Nederlands, Português, Suomi, Svenska
Genre: Action, Adventure, Sci-Fi

Natasha Romanoff confronts the darker parts of her ledger when a dangerous conspiracy with ties to her past arises.



General
Black.Widow.2021.720p.BluRay.DD5.1.x264-NTb.mkv
Format : Matroska
Format version : Version 4 / Version 2
File size : 4.95 GB
Duration : 2 h 13 min
Overall bit rate : 5294 kb/s
Encoded date : UTC 2021-09-05 20:38:30
Writing application : mkvmerge v55.0.0 ('Waiting For Space') 64-bit
Writing library : libebml v1.4.2 + libmatroska v1.6.4 / Lavf58.20.100

Video
ID : 5
Format : AVC
Format/Info : Advanced Video Codec
Format profile : High@L4.1
Format settings, CABAC : Yes
Format settings, ReFrames : 12 frames
Codec ID : V_MPEG4/ISO/AVC
Duration : 2 h 13 min
Bit rate : 4650 kb/s
Width : 1280 pixels
Height : 536 pixels
Display aspect ratio : 2.40:1
Frame rate mode : Constant
Frame rate : 23.976 (24000/1001) FPS
Color space : YUV
Chroma subsampling : 4:2:0
Bit depth : 8 bits
Scan type : Progressive
Bits/(Pixel*Frame) : 0.283
Stream size : 4.35 GB (88%)
Writing library : x264 core 164 r3065+62M b012ed0 devel [(8 & 10)-bit@all X86_64]
Encoding settings : cabac=1 / ref=12 / deblock=1:-3:-3 / analyse=0x3:0x133 / me=umh / subme=10 / psy=1 / fade_compensate=0.00 / psy_rd=1.00:0.00 / mixed_ref=1 / me_range=24 / chroma_me=1 / trellis=2 / 8x8dct=1 / cqm=0 / deadzone=21,11 / fast_pskip=0 / chroma_qp_offset=-2 / threads=17 / lookahead_threads=2 / sliced_threads=0 / nr=0 / decimate=0 / interlaced=0 / bluray_compat=0 / constrained_intra=0 / fgo=0 / bframes=8 / b_pyramid=2 / b_adapt=2 / b_bias=0 / direct=3 / weightb=1 / open_gop=0 / weightp=2 / keyint=250 / keyint_min=23 / scenecut=40 / intra_refresh=0 / rc_lookahead=60 / rc=crf / mbtree=0 / crf=16.0000 / qcomp=0.60 / qpmin=0:0:0 / qpmax=69:69:69 / qpstep=4 / vbv_maxrate=62500 / vbv_bufsize=78125 / crf_max=0.0 / nal_hrd=none / filler=0 / ip_ratio=1.30 / pb_ratio=1.20 / aq=3:0.80 / aq-sensitivity=10.00 / aq-factor=1.00:1.00:1.00 / aq2=0 / aq3=0
Language : English
Default : Yes
Forced : No
Color range : Limited
Matrix coefficients : BT.709

Audio
ID : 1
Format : AC-3
Format/Info : Audio Coding 3
Mode extension : CM (complete main)
Format settings, Endianness : Big
Codec ID : A_AC3
Duration : 2 h 13 min
Bit rate mode : Constant
Bit rate : 640 kb/s
Channel(s) : 6 channels
Channel positions : Front: L C R, Side: L R, LFE
Sampling rate : 48.0 kHz
Frame rate : 31.250 FPS (1536 spf)
Bit depth : 16 bits
Compression mode : Lossy
Stream size : 612 MB (12%)
Language : English
Default : Yes
Forced : No

Text #1
ID : 2
Format : UTF-8
Codec ID : S_TEXT/UTF8
Codec ID/Info : UTF-8 Plain Text
Duration : 2 h 13 min
Bit rate : 48 b/s
Count of elements : 1647
Stream size : 47.3 KiB (0%)
Title : SDH
Language : English
Default : No
Forced : No

Text #2
ID : 3
Format : UTF-8
Codec ID : S_TEXT/UTF8
Codec ID/Info : UTF-8 Plain Text
Duration : 2 h 12 min
Bit rate : 40 b/s
Count of elements : 1345
Stream size : 39.2 KiB (0%)
Language : English
Default : No
Forced : No

Text #3
ID : 4
Format : UTF-8
Codec ID : S_TEXT/UTF8
Codec ID/Info : UTF-8 Plain Text
Duration : 1 h 49 min
Bit rate : 1 b/s
Count of elements : 37
Stream size : 885 Bytes (0%)
Title : FORCED.
Language : English
Default : Yes
Forced : Yes

Text #4
ID : 6
Format : UTF-8
Codec ID : S_TEXT/UTF8
Codec ID/Info : UTF-8 Plain Text
Duration : 2 h 12 min
Bit rate : 33 b/s
Count of elements : 923
Stream size : 32.4 KiB (0%)
Title : Dansk
Language : Danish
Default : No
Forced : No

Text #5
ID : 7
Format : UTF-8
Codec ID : S_TEXT/UTF8
Codec ID/Info : UTF-8 Plain Text
Duration : 2 h 13 min
Bit rate : 50 b/s
Count of elements : 1502
Stream size : 49.4 KiB (0%)
Title : Deutsch (SDH)
Language : German
Default : No
Forced : No

Text #6
ID : 8
Format : UTF-8
Codec ID : S_TEXT/UTF8
Codec ID/Info : UTF-8 Plain Text
Duration : 2 h 12 min
Bit rate : 35 b/s
Count of elements : 1204
Stream size : 34.8 KiB (0%)
Title : Deutsch
Language : German
Default : No
Forced : No

Text #7
ID : 9
Format : UTF-8
Codec ID : S_TEXT/UTF8
Codec ID/Info : UTF-8 Plain Text
Duration : 2 h 12 min
Bit rate : 42 b/s
Count of elements : 1288
Stream size : 41.3 KiB (0%)
Title : Español (Latinoamérica) (SDH)
Language : Spanish
Default : No
Forced : No

Text #8
ID : 10
Format : UTF-8
Codec ID : S_TEXT/UTF8
Codec ID/Info : UTF-8 Plain Text
Duration : 2 h 12 min
Bit rate : 40 b/s
Count of elements : 1302
Stream size : 39.5 KiB (0%)
Title : Español (Latinoamérica)
Language : Spanish
Default : No
Forced : No

Text #9
ID : 11
Format : UTF-8
Codec ID : S_TEXT/UTF8
Codec ID/Info : UTF-8 Plain Text
Duration : 2 h 12 min
Bit rate : 36 b/s
Count of elements : 1277
Stream size : 35.1 KiB (0%)
Title : Español
Language : Spanish
Default : No
Forced : No

Text #10
ID : 12
Format : UTF-8
Codec ID : S_TEXT/UTF8
Codec ID/Info : UTF-8 Plain Text
Duration : 2 h 12 min
Bit rate : 39 b/s
Count of elements : 1300
Stream size : 38.3 KiB (0%)
Title : Suomi
Language : Finnish
Default : No
Forced : No

Text #11
ID : 13
Format : UTF-8
Codec ID : S_TEXT/UTF8
Codec ID/Info : UTF-8 Plain Text
Duration : 2 h 12 min
Bit rate : 43 b/s
Count of elements : 1319
Stream size : 42.7 KiB (0%)
Title : Français (Canada)
Language : French
Default : No
Forced : No

Text #12
ID : 14
Format : UTF-8
Codec ID : S_TEXT/UTF8
Codec ID/Info : UTF-8 Plain Text
Duration : 2 h 13 min
Bit rate : 43 b/s
Count of elements : 1494
Stream size : 42.4 KiB (0%)
Title : Français (SDH)
Language : French
Default : No
Forced : No

Text #13
ID : 15
Format : UTF-8
Codec ID : S_TEXT/UTF8
Codec ID/Info : UTF-8 Plain Text
Duration : 2 h 12 min
Bit rate : 33 b/s
Count of elements : 1256
Stream size : 32.4 KiB (0%)
Title : Français
Language : French
Default : No
Forced : No

Text #14
ID : 16
Format : UTF-8
Codec ID : S_TEXT/UTF8
Codec ID/Info : UTF-8 Plain Text
Duration : 2 h 12 min
Bit rate : 40 b/s
Count of elements : 1278
Stream size : 39.1 KiB (0%)
Title : Italiano
Language : Italian
Default : No
Forced : No

Text #15
ID : 17
Format : UTF-8
Codec ID : S_TEXT/UTF8
Codec ID/Info : UTF-8 Plain Text
Duration : 2 h 12 min
Bit rate : 34 b/s
Count of elements : 1299
Stream size : 33.8 KiB (0%)
Title : Norsk Bokmål
Language : Norwegian Bokmal
Default : No
Forced : No

Text #16
ID : 18
Format : UTF-8
Codec ID : S_TEXT/UTF8
Codec ID/Info : UTF-8 Plain Text
Duration : 2 h 12 min
Bit rate : 35 b/s
Count of elements : 1114
Stream size : 34.9 KiB (0%)
Title : Nederlands
Language : Dutch
Default : No
Forced : No

Text #17
ID : 19
Format : UTF-8
Codec ID : S_TEXT/UTF8
Codec ID/Info : UTF-8 Plain Text
Duration : 2 h 13 min
Bit rate : 46 b/s
Count of elements : 1473
Stream size : 45.8 KiB (0%)
Title : Português (Brasil) (SDH)
Language : Portuguese
Default : No
Forced : No

Text #18
ID : 20
Format : UTF-8
Codec ID : S_TEXT/UTF8
Codec ID/Info : UTF-8 Plain Text
Duration : 2 h 12 min
Bit rate : 39 b/s
Count of elements : 1297
Stream size : 38.5 KiB (0%)
Title : Português (Brasil)
Language : Portuguese
Default : No
Forced : No

Text #19
ID : 21
Format : UTF-8
Codec ID : S_TEXT/UTF8
Codec ID/Info : UTF-8 Plain Text
Duration : 2 h 12 min
Bit rate : 38 b/s
Count of elements : 1273
Stream size : 37.7 KiB (0%)
Title : Português
Language : Portuguese
Default : No
Forced : No

Text #20
ID : 22
Format : UTF-8
Codec ID : S_TEXT/UTF8
Codec ID/Info : UTF-8 Plain Text
Duration : 2 h 12 min
Bit rate : 35 b/s
Count of elements : 1080
Stream size : 34.8 KiB (0%)
Title : Svenska
Language : Swedish
Default : No
Forced : No

Text #21
ID : 23
Format : UTF-8
Codec ID : S_TEXT/UTF8
Codec ID/Info : UTF-8 Plain Text
Duration : 2 h 12 min
Bit rate : 57 b/s
Count of elements : 1341
Stream size : 55.4 KiB (0%)
Language : Vietnamese
Default : No
Forced : No

Menu
00:00:00.000 : en:Chapter 01
00:04:55.170 : en:Chapter 02
00:13:10.081 : en:Chapter 03
00:16:24.567 : en:Chapter 04
00:18:41.871 : en:Chapter 05
00:21:41.634 : en:Chapter 06
00:25:40.789 : en:Chapter 07
00:30:06.346 : en:Chapter 08
00:39:05.468 : en:Chapter 09
00:44:46.350 : en:Chapter 10
00:53:25.994 : en:Chapter 11
01:01:38.153 : en:Chapter 12
01:07:46.271 : en:Chapter 13
01:11:40.671 : en:Chapter 14
01:17:48.789 : en:Chapter 15
01:27:19.234 : en:Chapter 16
01:33:33.441 : en:Chapter 17
01:37:37.477 : en:Chapter 18
01:41:18.656 : en:Chapter 19
01:45:37.873 : en:Chapter 20
01:51:41.653 : en:Chapter 21
01:57:09.105 : en:Chapter 22
02:01:59.687 : en:Chapter 23
02:04:25.458 : en:Chapter 24


General
Black.Widow.2021.1080p.BluRay.DD+7.1.x264-iFT.mkv
Format : Matroska
Format version : Version 4 / Version 2
File size : 14.0 GB
Duration : 2 h 13 min
Overall bit rate : 15.0 Mb/s
Movie name : Black.Widow.2021.1080p.BluRay.DD+7.1.x264-iFT
Encoded date : UTC 2021-09-05 18:21:41
Writing application : mkvmerge v61.0.0 ('So') 64-bit
Writing library : libebml v1.4.2 + libmatroska v1.6.4

Video
ID : 1
Format : AVC
Format/Info : Advanced Video Codec
Format profile : High@L4.1
Format settings, CABAC : Yes
Format settings, ReFrames : 5 frames
Codec ID : V_MPEG4/ISO/AVC
Duration : 2 h 13 min
Bit rate : 13.5 Mb/s
Width : 1920 pixels
Height : 804 pixels
Display aspect ratio : 2.40:1
Frame rate mode : Constant
Frame rate : 23.976 (24000/1001) FPS
Color space : YUV
Chroma subsampling : 4:2:0
Bit depth : 8 bits
Scan type : Progressive
Bits/(Pixel*Frame) : 0.365
Stream size : 12.6 GB (90%)
Writing library : x264 core 163 r3059+79M ~ Encoded by Mocunaman in Portugal
Encoding settings : cabac=1 / ref=5 / deblock=1:-3:-3 / analyse=0x3:0x113 / me=umh / subme=11 / psy=1 / fade_compensate=0.00 / psy_rd=1.00:0.00 / mixed_ref=1 / me_range=48 / chroma_me=1 / trellis=2 / 8x8dct=1 / cqm=0 / deadzone=21,11 / fast_pskip=0 / chroma_qp_offset=-2 / threads=25 / lookahead_threads=4 / sliced_threads=0 / nr=0 / decimate=0 / interlaced=0 / bluray_compat=0 / constrained_intra=0 / fgo=0 / bframes=9 / b_pyramid=2 / b_adapt=2 / b_bias=0 / direct=3 / weightb=1 / open_gop=0 / weightp=2 / keyint=250 / keyint_min=23 / scenecut=40 / intra_refresh=0 / rc_lookahead=60 / rc=crf / mbtree=0 / crf=17.0000 / qcomp=0.70 / qpmin=0:0:0 / qpmax=69:69:69 / qpstep=4 / vbv_maxrate=62500 / vbv_bufsize=78125 / crf_max=0.0 / nal_hrd=none / filler=0 / ip_ratio=1.30 / pb_ratio=1.20 / aq=3:0.80 / aq-sensitivity=10.00 / aq-factor=1.00:1.00:1.00 / aq2=0 / aq3=0 / zones=0,984,crf=15/4492,7949,crf=16.5/7973,14213,crf=16/18941,23600,crf=15/26113,26897,crf=16.7/35945,43308,crf=15.5/51803,53411,crf=16/61950,63122,crf=16/63720,64407,crf=16/67501,74697,crf=16/79265,82121,crf=16/100099,121195,crf=16.5/121221,126501,crf=16/128085,128877,crf=16/130365,134587,crf=16.5/141331,142563,crf=16/142761,142936,crf=15/145263,169255,crf=15.5/179001,188735,crf=20
Language : English
Default : Yes
Forced : No
Color range : Limited
Color primaries : BT.709
Transfer characteristics : BT.709
Matrix coefficients : BT.709

Audio
ID : 2
Format : E-AC-3
Format/Info : Enhanced Audio Coding 3
Format settings, Endianness : Big
Codec ID : A_EAC3
Duration : 2 h 13 min
Bit rate mode : Constant
Bit rate : 500 b/s
Channel(s) : 8 channels
Channel(s)_Original : 6 channels
Channel positions : Front: L C R, Side: L R, LFE
Sampling rate : 48.0 kHz
Frame rate : 187.500 FPS (256 spf)
Compression mode : Lossy
Stream size : 1.44 GB (10%)
Title : E-AC3 DD+7.1 1536kbs
Language : English
Default : Yes
Forced : No

Text #1
ID : 3
Format : UTF-8
Codec ID : S_TEXT/UTF8
Codec ID/Info : UTF-8 Plain Text
Duration : 1 h 49 min
Bit rate : 1 b/s
Count of elements : 37
Stream size : 885 Bytes (0%)
Title : Forced
Language : English
Default : Yes
Forced : Yes

Text #2
ID : 4
Format : UTF-8
Codec ID : S_TEXT/UTF8
Codec ID/Info : UTF-8 Plain Text
Duration : 2 h 12 min
Bit rate : 40 b/s
Count of elements : 1319
Stream size : 39.0 KiB (0%)
Title : Full .srt
Language : English
Default : No
Forced : No

Text #3
ID : 5
Format : UTF-8
Codec ID : S_TEXT/UTF8
Codec ID/Info : UTF-8 Plain Text
Duration : 2 h 13 min
Bit rate : 48 b/s
Count of elements : 1647
Stream size : 47.4 KiB (0%)
Title : SDH .srt
Language : English
Default : No
Forced : No

Text #4
ID : 6
Format : UTF-8
Codec ID : S_TEXT/UTF8
Codec ID/Info : UTF-8 Plain Text
Duration : 2 h 12 min
Bit rate : 44 b/s
Count of elements : 1319
Stream size : 43.4 KiB (0%)
Title : Full .srt
Language : French
Default : No
Forced : No

Text #5
ID : 7
Format : UTF-8
Codec ID : S_TEXT/UTF8
Codec ID/Info : UTF-8 Plain Text
Duration : 2 h 12 min
Bit rate : 33 b/s
Count of elements : 923
Stream size : 32.7 KiB (0%)
Title : Dansk
Language : Danish
Default : No
Forced : No

Text #6
ID : 8
Format : UTF-8
Codec ID : S_TEXT/UTF8
Codec ID/Info : UTF-8 Plain Text
Duration : 2 h 12 min
Bit rate : 36 b/s
Count of elements : 1204
Stream size : 35.1 KiB (0%)
Title : Deutsch
Language : German
Default : No
Forced : No

Text #7
ID : 9
Format : UTF-8
Codec ID : S_TEXT/UTF8
Codec ID/Info : UTF-8 Plain Text
Duration : 2 h 12 min
Bit rate : 36 b/s
Count of elements : 1204
Stream size : 35.1 KiB (0%)
Title : Deutsch [CC]
Language : German
Default : No
Forced : No

Text #8
ID : 10
Format : UTF-8
Codec ID : S_TEXT/UTF8
Codec ID/Info : UTF-8 Plain Text
Duration : 2 h 12 min
Bit rate : 36 b/s
Count of elements : 1277
Stream size : 35.6 KiB (0%)
Title : Español
Language : Spanish
Default : No
Forced : No

Text #9
ID : 11
Format : UTF-8
Codec ID : S_TEXT/UTF8
Codec ID/Info : UTF-8 Plain Text
Duration : 2 h 12 min
Bit rate : 41 b/s
Count of elements : 1302
Stream size : 40.0 KiB (0%)
Title : Español (Latinoamericano)
Language : Spanish
Default : No
Forced : No

Text #10
ID : 12
Format : UTF-8
Codec ID : S_TEXT/UTF8
Codec ID/Info : UTF-8 Plain Text
Duration : 2 h 12 min
Bit rate : 41 b/s
Count of elements : 1302
Stream size : 40.0 KiB (0%)
Title : Español (Latinoamericano) [CC]
Language : Spanish
Default : No
Forced : No

Text #11
ID : 13
Format : UTF-8
Codec ID : S_TEXT/UTF8
Codec ID/Info : UTF-8 Plain Text
Duration : 2 h 12 min
Bit rate : 44 b/s
Count of elements : 1319
Stream size : 43.2 KiB (0%)
Title : Français (Canadien)
Language : French
Default : No
Forced : No

Text #12
ID : 14
Format : UTF-8
Codec ID : S_TEXT/UTF8
Codec ID/Info : UTF-8 Plain Text
Duration : 2 h 12 min
Bit rate : 40 b/s
Count of elements : 1278
Stream size : 39.1 KiB (0%)
Title : Italiano
Language : Italian
Default : No
Forced : No

Text #13
ID : 15
Format : UTF-8
Codec ID : S_TEXT/UTF8
Codec ID/Info : UTF-8 Plain Text
Duration : 2 h 12 min
Bit rate : 33 b/s
Count of elements : 1257
Stream size : 32.4 KiB (0%)
Title : Japanese
Language : Japanese
Default : No
Forced : No

Text #14
ID : 16
Format : UTF-8
Codec ID : S_TEXT/UTF8
Codec ID/Info : UTF-8 Plain Text
Duration : 2 h 12 min
Bit rate : 35 b/s
Count of elements : 1114
Stream size : 34.9 KiB (0%)
Title : Nederlands
Language : Dutch
Default : No
Forced : No

Text #15
ID : 17
Format : UTF-8
Codec ID : S_TEXT/UTF8
Codec ID/Info : UTF-8 Plain Text
Duration : 2 h 12 min
Bit rate : 35 b/s
Count of elements : 1299
Stream size : 34.3 KiB (0%)
Title : Norsk
Language : Norwegian
Default : No
Forced : No

Text #16
ID : 18
Format : UTF-8
Codec ID : S_TEXT/UTF8
Codec ID/Info : UTF-8 Plain Text
Duration : 2 h 12 min
Bit rate : 39 b/s
Count of elements : 1273
Stream size : 38.2 KiB (0%)
Title : Português
Language : Portuguese
Default : No
Forced : No

Text #17
ID : 19
Format : UTF-8
Codec ID : S_TEXT/UTF8
Codec ID/Info : UTF-8 Plain Text
Duration : 2 h 12 min
Bit rate : 40 b/s
Count of elements : 1297
Stream size : 39.0 KiB (0%)
Title : Português (Brasil)
Language : Portuguese
Default : No
Forced : No

Text #18
ID : 20
Format : UTF-8
Codec ID : S_TEXT/UTF8
Codec ID/Info : UTF-8 Plain Text
Duration : 2 h 12 min
Bit rate : 40 b/s
Count of elements : 1297
Stream size : 39.0 KiB (0%)
Title : Português (Brasil) [CC]
Language : Portuguese
Default : No
Forced : No

Text #19
ID : 21
Format : UTF-8
Codec ID : S_TEXT/UTF8
Codec ID/Info : UTF-8 Plain Text
Duration : 2 h 12 min
Bit rate : 39 b/s
Count of elements : 1300
Stream size : 38.8 KiB (0%)
Title : Suomi
Language : Finnish
Default : No
Forced : No

Text #20
ID : 22
Format : UTF-8
Codec ID : S_TEXT/UTF8
Codec ID/Info : UTF-8 Plain Text
Duration : 2 h 12 min
Bit rate : 36 b/s
Count of elements : 1080
Stream size : 35.2 KiB (0%)
Title : Svenska
Language : Swedish
Default : No
Forced : No

Menu
00:00:00.000 : Chapter 1
00:04:55.295 : Chapter 2
00:13:10.206 : Chapter 3
00:16:24.692 : Chapter 4
00:18:41.995 : Chapter 5
00:21:41.758 : Chapter 6
00:25:40.914 : Chapter 7
00:30:06.471 : Chapter 8
00:39:05.593 : Chapter 9
00:44:46.475 : Chapter 10
00:53:26.119 : Chapter 11
01:01:38.278 : Chapter 12
01:07:46.395 : Chapter 13
01:11:40.796 : Chapter 14
01:17:48.914 : Chapter 15
01:27:19.359 : Chapter 16
01:33:33.566 : Chapter 17
01:37:37.601 : Chapter 18
01:41:18.781 : Chapter 19
01:45:37.998 : Chapter 20
01:51:41.778 : Chapter 21
01:57:09.230 : Chapter 22
02:01:59.812 : Chapter 23
02:04:25.583 : Chapter 24



BDRip 720p Screenshots

Black Widow (2021)

Black Widow (2021)

Black Widow (2021)

Black Widow (2021)


BDRip 1080p Screenshots

Black Widow (2021)

Black Widow (2021)

Black Widow (2021)

Black Widow (2021)


Come Visit My Blog (•‿•)