Blade Runner 2049 (2017)

Posted By: Without
2160p (4k UHD) / BluRay Remux IMDb
Blade Runner 2049 (2017)

Blade Runner 2049 (2017)
4K UHD Remux | MKV | 3840x2160 | HEVC@49.5 Mb/s | English Atmos / TrueHD@4597 kb/s Kbps (8 ch)
English AC3@640 Kbps (6 ch) | 2 h 43 min | 63.0 GB
Subs: English, Arabic, Bulgarian, Chinese, Croatian, Czech, Greek, Hebrew
Hungarian, Icelandic, Indonesian, Korean, Malay, Polish, Portuguese
Romanian, Serbian, Slovak, Slovenian, Spanish, Thai, Turkish, Vietnamese
Genre: Drama, Mystery, Sci-Fi

A young blade runner's discovery of a long-buried secret leads him to track down former blade runner Rick Deckard, who's been missing for thirty years.

IMDB - Top Rated Movies #116 | Nominated for 7 BAFTA Film Awards. Another 46 wins & 63 nominations.


General
Blade.Runner.2049.2017.UHD.BluRay.2160p.TrueHD.Atmos.7.1.HEVC.REMUX-FraMeSToR.mkv
Format : Matroska
Format version : Version 4 / Version 2
File size : 63.0 GiB
Duration : 2 h 43 min
Overall bit rate mode : Variable
Overall bit rate : 55.2 Mb/s
Movie name : Blade Runner 2049 (2017) 4K
Encoded date : UTC 2018-01-15 22:10:34
Writing application : mkvmerge v19.0.0 ('Brave Captain') 64-bit
Writing library : libebml v1.3.5 + libmatroska v1.4.8

Video
ID : 1
Format : HEVC
Format/Info : High Efficiency Video Coding
Format profile : Main 10@L5.1@High
Codec ID : V_MPEGH/ISO/HEVC
Duration : 2 h 43 min
Bit rate : 49.5 Mb/s
Width : 3 840 pixels
Height : 2 160 pixels
Display aspect ratio : 16:9
Frame rate mode : Constant
Frame rate : 23.976 (24000/1001) FPS
Color space : YUV
Chroma subsampling : 4:2:0 (Type 2)
Bit depth : 10 bits
Bits/(Pixel*Frame) : 0.249
Stream size : 56.5 GiB (90%)
Default : Yes
Forced : No
Color range : Limited
Color primaries : BT.2020
Transfer characteristics : SMPTE ST 2084
Matrix coefficients : BT.2020 non-constant
Mastering display color primaries : R: x=0.680000 y=0.320000, G: x=0.265000 y=0.690000, B: x=0.150000 y=0.060000, White point: x=0.312700 y=0.329000
Mastering display luminance : min: 0.0050 cd/m2, max: 4000.0000 cd/m2
Maximum Content Light Level : 457 cd/m2
Maximum Frame-Average Light Level : 179 cd/m2

Audio #1
ID : 2
Format : Atmos / TrueHD
Codec ID : A_TRUEHD
Duration : 2 h 43 min
Bit rate mode : Variable
Bit rate : 4 597 kb/s
Maximum bit rate : 5 022 kb/s
Channel(s) : Object Based / 8 channels
Channel positions : Object Based / Front: L C R, Side: L R, Back: L R, LFE
Sampling rate : / 48.0 kHz
Frame rate : 1 200.000 FPS (40 spf)
Compression mode : Lossless
Stream size : 5.25 GiB (8%)
Title : TrueHD Atmos 7.1
Language : English
Default : Yes
Forced : No

Audio #2
ID : 3
Format : AC-3
Format/Info : Audio Coding 3
Mode extension : CM (complete main)
Format settings, Endianness : Big
Codec ID : A_AC3
Duration : 2 h 43 min
Bit rate mode : Constant
Bit rate : 640 kb/s
Channel(s) : 6 channels
Channel positions : Front: L C R, Side: L R, LFE
Sampling rate : 48.0 kHz
Frame rate : 31.250 FPS (1536 spf)
Bit depth : 16 bits
Compression mode : Lossy
Stream size : 748 MiB (1%)
Title : AC-3 5.1
Language : English
Default : No
Forced : No

Text #1
ID : 4
Format : PGS
Codec ID : S_HDMV/PGS
Codec ID/Info : Picture based subtitle format used on BDs/HD-DVDs
Duration : 2 h 32 min
Bit rate : 14.9 kb/s
Count of elements : 1950
Stream size : 16.3 MiB (0%)
Title : English
Language : English
Default : No
Forced : No

Text #2
ID : 5
Format : PGS
Codec ID : S_HDMV/PGS
Codec ID/Info : Picture based subtitle format used on BDs/HD-DVDs
Duration : 2 h 34 min
Bit rate : 18.6 kb/s
Count of elements : 2458
Stream size : 20.5 MiB (0%)
Title : English (SDH)
Language : English
Default : No
Forced : No

Text #3
ID : 6
Format : PGS
Codec ID : S_HDMV/PGS
Codec ID/Info : Picture based subtitle format used on BDs/HD-DVDs
Duration : 2 h 42 min
Bit rate : 8 520 b/s
Count of elements : 2097
Stream size : 9.91 MiB (0%)
Title : Arabic
Language : Arabic
Default : No
Forced : No

Text #4
ID : 7
Format : PGS
Codec ID : S_HDMV/PGS
Codec ID/Info : Picture based subtitle format used on BDs/HD-DVDs
Duration : 2 h 42 min
Bit rate : 15.6 kb/s
Count of elements : 2078
Stream size : 18.2 MiB (0%)
Title : Bulgarian
Language : Bulgarian
Default : No
Forced : No

Text #5
ID : 8
Format : PGS
Codec ID : S_HDMV/PGS
Codec ID/Info : Picture based subtitle format used on BDs/HD-DVDs
Duration : 2 h 42 min
Bit rate : 13.3 kb/s
Count of elements : 2092
Stream size : 15.5 MiB (0%)
Title : Chinese (Traditional)
Language : Chinese
Default : No
Forced : No

Text #6
ID : 9
Format : PGS
Codec ID : S_HDMV/PGS
Codec ID/Info : Picture based subtitle format used on BDs/HD-DVDs
Duration : 2 h 42 min
Bit rate : 12.4 kb/s
Count of elements : 2090
Stream size : 14.4 MiB (0%)
Title : Chinese (Simplified)
Language : Chinese
Default : No
Forced : No

Text #7
ID : 10
Format : PGS
Codec ID : S_HDMV/PGS
Codec ID/Info : Picture based subtitle format used on BDs/HD-DVDs
Duration : 2 h 42 min
Bit rate : 12.6 kb/s
Count of elements : 2086
Stream size : 14.7 MiB (0%)
Title : Chinese (Cantonese)
Language : Chinese
Default : No
Forced : No

Text #8
ID : 11
Format : PGS
Codec ID : S_HDMV/PGS
Codec ID/Info : Picture based subtitle format used on BDs/HD-DVDs
Duration : 2 h 42 min
Bit rate : 13.8 kb/s
Count of elements : 2084
Stream size : 16.1 MiB (0%)
Title : Croatian
Language : Croatian
Default : No
Forced : No

Text #9
ID : 12
Format : PGS
Codec ID : S_HDMV/PGS
Codec ID/Info : Picture based subtitle format used on BDs/HD-DVDs
Duration : 2 h 42 min
Bit rate : 14.0 kb/s
Count of elements : 2074
Stream size : 16.3 MiB (0%)
Title : Czech
Language : Czech
Default : No
Forced : No

Text #10
ID : 13
Format : PGS
Codec ID : S_HDMV/PGS
Codec ID/Info : Picture based subtitle format used on BDs/HD-DVDs
Duration : 2 h 41 min
Bit rate : 17.1 kb/s
Count of elements : 2116
Stream size : 19.7 MiB (0%)
Title : Greek
Language : Greek
Default : No
Forced : No

Text #11
ID : 14
Format : PGS
Codec ID : S_HDMV/PGS
Codec ID/Info : Picture based subtitle format used on BDs/HD-DVDs
Duration : 2 h 42 min
Bit rate : 11.6 kb/s
Count of elements : 2104
Stream size : 13.5 MiB (0%)
Title : Hebrew
Language : Hebrew
Default : No
Forced : No

Text #12
ID : 15
Format : PGS
Codec ID : S_HDMV/PGS
Codec ID/Info : Picture based subtitle format used on BDs/HD-DVDs
Duration : 2 h 42 min
Bit rate : 14.5 kb/s
Count of elements : 1984
Stream size : 16.9 MiB (0%)
Title : Hungarian
Language : Hungarian
Default : No
Forced : No

Text #13
ID : 16
Format : PGS
Codec ID : S_HDMV/PGS
Codec ID/Info : Picture based subtitle format used on BDs/HD-DVDs
Duration : 2 h 42 min
Bit rate : 15.4 kb/s
Count of elements : 2036
Stream size : 18.0 MiB (0%)
Title : Icelandic
Language : Icelandic
Default : No
Forced : No

Text #14
ID : 17
Format : PGS
Codec ID : S_HDMV/PGS
Codec ID/Info : Picture based subtitle format used on BDs/HD-DVDs
Duration : 2 h 42 min
Bit rate : 17.0 kb/s
Count of elements : 2116
Stream size : 19.8 MiB (0%)
Title : Indonesian
Language : Indonesian
Default : No
Forced : No

Text #15
ID : 18
Format : PGS
Codec ID : S_HDMV/PGS
Codec ID/Info : Picture based subtitle format used on BDs/HD-DVDs
Duration : 2 h 42 min
Bit rate : 12.2 kb/s
Count of elements : 2104
Stream size : 14.2 MiB (0%)
Title : Korean
Language : Korean
Default : No
Forced : No

Text #16
ID : 19
Format : PGS
Codec ID : S_HDMV/PGS
Codec ID/Info : Picture based subtitle format used on BDs/HD-DVDs
Duration : 2 h 42 min
Bit rate : 18.2 kb/s
Count of elements : 2126
Stream size : 21.2 MiB (0%)
Title : Malay
Language : Malay
Default : No
Forced : No

Text #17
ID : 20
Format : PGS
Codec ID : S_HDMV/PGS
Codec ID/Info : Picture based subtitle format used on BDs/HD-DVDs
Duration : 2 h 42 min
Bit rate : 16.0 kb/s
Count of elements : 2092
Stream size : 18.6 MiB (0%)
Title : Polish
Language : Polish
Default : No
Forced : No

Text #18
ID : 21
Format : PGS
Codec ID : S_HDMV/PGS
Codec ID/Info : Picture based subtitle format used on BDs/HD-DVDs
Duration : 2 h 42 min
Bit rate : 16.0 kb/s
Count of elements : 2086
Stream size : 18.6 MiB (0%)
Title : Portuguese (Brazilian)
Language : Portuguese
Default : No
Forced : No

Text #19
ID : 22
Format : PGS
Codec ID : S_HDMV/PGS
Codec ID/Info : Picture based subtitle format used on BDs/HD-DVDs
Duration : 2 h 42 min
Bit rate : 16.0 kb/s
Count of elements : 2102
Stream size : 18.6 MiB (0%)
Title : Portuguese
Language : Portuguese
Default : No
Forced : No

Text #20
ID : 23
Format : PGS
Codec ID : S_HDMV/PGS
Codec ID/Info : Picture based subtitle format used on BDs/HD-DVDs
Duration : 2 h 42 min
Bit rate : 15.2 kb/s
Count of elements : 2080
Stream size : 17.6 MiB (0%)
Title : Romanian
Language : Romanian
Default : No
Forced : No

Text #21
ID : 24
Format : PGS
Codec ID : S_HDMV/PGS
Codec ID/Info : Picture based subtitle format used on BDs/HD-DVDs
Duration : 2 h 42 min
Bit rate : 14.6 kb/s
Count of elements : 2082
Stream size : 17.0 MiB (0%)
Title : Serbian
Language : Serbian
Default : No
Forced : No

Text #22
ID : 25
Format : PGS
Codec ID : S_HDMV/PGS
Codec ID/Info : Picture based subtitle format used on BDs/HD-DVDs
Duration : 2 h 42 min
Bit rate : 13.7 kb/s
Count of elements : 2082
Stream size : 15.9 MiB (0%)
Title : Slovak
Language : Slovak
Default : No
Forced : No

Text #23
ID : 26
Format : PGS
Codec ID : S_HDMV/PGS
Codec ID/Info : Picture based subtitle format used on BDs/HD-DVDs
Duration : 2 h 42 min
Bit rate : 13.3 kb/s
Count of elements : 1964
Stream size : 15.5 MiB (0%)
Title : Slovenian
Language : Slovenian
Default : No
Forced : No

Text #24
ID : 27
Format : PGS
Codec ID : S_HDMV/PGS
Codec ID/Info : Picture based subtitle format used on BDs/HD-DVDs
Duration : 2 h 42 min
Bit rate : 15.6 kb/s
Count of elements : 2090
Stream size : 18.1 MiB (0%)
Title : Spanish (Latin American)
Language : Spanish
Default : No
Forced : No

Text #25
ID : 28
Format : PGS
Codec ID : S_HDMV/PGS
Codec ID/Info : Picture based subtitle format used on BDs/HD-DVDs
Duration : 2 h 42 min
Bit rate : 14.8 kb/s
Count of elements : 2096
Stream size : 17.2 MiB (0%)
Title : Thai
Language : Thai
Default : No
Forced : No

Text #26
ID : 29
Format : PGS
Codec ID : S_HDMV/PGS
Codec ID/Info : Picture based subtitle format used on BDs/HD-DVDs
Duration : 2 h 42 min
Bit rate : 15.7 kb/s
Count of elements : 2092
Stream size : 18.3 MiB (0%)
Title : Turkish
Language : Turkish
Default : No
Forced : No

Text #27
ID : 30
Format : PGS
Codec ID : S_HDMV/PGS
Codec ID/Info : Picture based subtitle format used on BDs/HD-DVDs
Duration : 2 h 42 min
Bit rate : 17.6 kb/s
Count of elements : 2146
Stream size : 20.5 MiB (0%)
Title : Vietnamese
Language : Vietnamese
Default : No
Forced : No

Menu
00:00:00.000 : en:Chapter 1
00:12:36.172 : en:Chapter 2
00:23:29.283 : en:Chapter 3
00:37:00.885 : en:Chapter 4
00:42:50.318 : en:Chapter 5
00:49:24.503 : en:Chapter 6
00:58:35.554 : en:Chapter 7
01:04:10.680 : en:Chapter 8
01:15:47.293 : en:Chapter 9
01:25:12.482 : en:Chapter 10
01:36:15.061 : en:Chapter 11
01:50:55.107 : en:Chapter 12
02:01:36.873 : en:Chapter 13
02:08:40.379 : en:Chapter 14
02:16:42.486 : en:Chapter 15
02:27:46.733 : en:Chapter 16


Screenshots

Blade Runner 2049 (2017)

Blade Runner 2049 (2017)

Blade Runner 2049 (2017)

Blade Runner 2049 (2017)

Blade Runner 2049 (2017)

Blade Runner 2049 (2017)

Blade Runner 2049 (2017)

Blade Runner 2049 (2017)


Come Visit My Blog (•‿•)