Blood Harvest (1987)

Posted By: Tavaz
1080p (FullHD) / BDRip IMDb
Blood Harvest (1987)

Blood Harvest (1987)
BluRay Remux | MKV | 1920x1080 | English | H264 @ 25000 kbps | FLAC @ 414 kbps | 1 h 27 min | 15.6 GiB
Subtitles: English
Genre: Horror

Tiny Tim stars in his first dramatic film role in this taut drama. A Beautiful young girl, Jill Robinson, returns to her peaceful rural home town to find that her life has been turned upside down. The house she grew up in has been defaced, her parents are missing, and the whole town hates her father, the bank supervisor who had foreclosed on many of the local farms. Only "Marvelous Mervo" (Tiny Tim) seems happy to see her. He wanders around the community dressed in a clown's suit with a clown's permanent grin grotesquely painted on his face. Mervo's brother tries to re-kindle his love affair with Jill. Then, one by one, those closest to her are slaughtered like cattle… tied upside down from the rafters of the barn… until the surprise ending reveals the madman.. and a very unlikely savior.

e4d112eded4f46739cb300739804d4a5.mkv (15.6 GB)



General
Complete name : ./e4d112eded4f46739cb300739804d4a5.mkv
Format : Matroska
Format version : Version 4 / Version 2
File size : 15.6 GiB
Duration : 1 h 27 min
Overall bit rate mode : Variable
Overall bit rate : 25.4 Mb/s
Encoded date : UTC 2018-03-31 13:41:02
Writing application : mkvmerge v20.0.0 ('I Am The Sun') 64-bit
Writing library : libebml v1.3.5 + libmatroska v1.4.8

Video
ID : 1
Format : AVC
Format/Info : Advanced Video Codec
Format profile : High@L4.1
Format settings : CABAC / 4 Ref Frames
Format settings, CABAC : Yes
Format settings, RefFrames : 4 frames
Codec ID : V_MPEG4/ISO/AVC
Duration : 1 h 27 min
Bit rate mode : Variable
Bit rate : 25.0 Mb/s
Maximum bit rate : 35.0 Mb/s
Width : 1 920 pixels
Height : 1 080 pixels
Display aspect ratio : 16:9
Frame rate mode : Constant
Frame rate : 23.976 (24000/1001) FPS
Standard : Component
Color space : YUV
Chroma subsampling : 4:2:0
Bit depth : 8 bits
Scan type : Progressive
Bits/(Pixel*Frame) : 0.503
Stream size : 15.3 GiB (98%)
Title : MPEG-4 AVC Video / 24995 kbps / 1080p / 23.976 fps / 16:9 / High Profile 4.1
Writing library : x264 core 148
Encoding settings : cabac=1 / ref=4 / deblock=1:0:0 / analyse=0x3:0x113 / me=umh / subme=8 / psy=1 / psy_rd=1.00:0.00 / mixed_ref=1 / me_range=16 / chroma_me=1 / trellis=1 / 8x8dct=1 / cqm=1 / deadzone=21,11 / fast_pskip=1 / chroma_qp_offset=-2 / threads=6 / lookahead_threads=1 / sliced_threads=0 / slices=4 / nr=0 / decimate=1 / interlaced=0 / minigop=1 / stitchable=1 / constrained_intra=0 / bframes=2 / b_pyramid=0 / b_adapt=2 / b_bias=0 / direct=3 / weightb=1 / open_gop=1 / weightp=1 / keyint=24 / keyint_min=1 / scenecut=40 / intra_refresh=0 / rc_lookahead=24 / rc=2pass / mbtree=1 / bitrate=25000 / ratetol=1.0 / qcomp=0.60 / qpmin=3 / qpmax=69 / qpstep=4 / cplxblur=20.0 / qblur=0.5 / vbv_maxrate=35000 / vbv_bufsize=30000 / nal_hrd=vbr / filler=0 / ip_ratio=1.40 / aq=1:1.00
Language : English
Default : Yes
Forced : No
Color range : Limited
Color primaries : BT.709
Transfer characteristics : BT.709
Matrix coefficients : BT.709

Audio
ID : 2
Format : FLAC
Format/Info : Free Lossless Audio Codec
Codec ID : A_FLAC
Duration : 1 h 27 min
Bit rate mode : Variable
Bit rate : 415 kb/s
Channel(s) : 2 channels
Channel positions : Front: L R
Sampling rate : 48.0 kHz
Frame rate : 11.719 FPS (4096 SPF)
Bit depth : 16 bits
Stream size : 260 MiB (2%)
Title : FLAC Audio / 2.0 / 48 kHz / 415 kbps / 16-bit
Writing library : libFLAC 1.2.1 (UTC 2007-09-17)
Language : English
Default : Yes
Forced : No

Text
ID : 3
Format : PGS
Codec ID : S_HDMV/PGS
Codec ID/Info : Picture based subtitle format used on BDs/HD-DVDs
Duration : 1 h 27 min
Bit rate : 33.9 kb/s
Count of elements : 1948
Stream size : 21.2 MiB (0%)
Title : SDH
Language : English
Default : No
Forced : No

Menu
00:00:00.000 : en:Chapter 1
00:08:39.978 : en:Chapter 2
00:21:38.589 : en:Chapter 3
00:33:08.737 : en:Chapter 4
00:48:01.003 : en:Chapter 5
00:59:01.163 : en:Chapter 6
01:11:44.842 : en:Chapter 7
01:20:55.934 : en:Chapter 8





Blood Harvest (1987)


Blood Harvest (1987)


Blood Harvest (1987)


Blood Harvest (1987)


Blood Harvest (1987)