Blood and Glory The Civil War in Color (2015)

Posted By: notbanned
720p (HD) / BDRip IMDb
Blood and Glory The Civil War in Color (2015)

Blood and Glory The Civil War in Color (2015)
BDRip | 1280x720 | .MKV/AVC @ 5968 Kbps | 2x~80min | 8.72 GiB
Audio: English DTS 1509 kbps, 6 channels | Subs: None
Genre: Documentary

BLOOD AND GLORY: THE CIVIL WAR IN COLOR commemorates one of the most defining moments in American history, one which tore the nation apart, pitting North against South, brother vs. brother. Over the course of four years, more than 750,000 military and civilian lives were sacrificed to make the United States a more perfect union. Using state-of-the-art technology to colorize 500 rare black-and- white photographs, and unprecedented access to government and private archives, the emotional stories of these brave men come vibrantly to life.

General
Unique ID : 244754088281441615641511131334502770861 (0xB821EC3A363CB02F972124DC8F5FE8AD)
Complete name : Blood.and.Glory.The.Civil.War.in.Color.Part1.720p.mkv
Format : Matroska
Format version : Version 4 / Version 2
File size : 4.36 GiB
Duration : 1 h 23 min
Overall bit rate : 7 480 kb/s

Video
ID : 1
Format : AVC
Format/Info : Advanced Video Codec
Format profile : High@L4.1
Format settings, CABAC : Yes
Format settings, ReFrames : 5 frames
Codec ID : V_MPEG4/ISO/AVC
Duration : 1 h 23 min
Bit rate : 5 968 kb/s
Width : 1 280 pixels
Height : 720 pixels
Display aspect ratio : 16:9
Frame rate mode : Constant
Frame rate : 23.976 (24000/1001) FPS
Color space : YUV
Chroma subsampling : 4:2:0
Bit depth : 8 bits
Scan type : Progressive
Bits/(Pixel*Frame) : 0.270
Stream size : 3.48 GiB (80%)
Writing library : x264 core 148 r2665 a01e339
Encoding settings : cabac=1 / ref=5 / deblock=1:-3:-3 / analyse=0x3:0x113 / me=umh / subme=8 / psy=1 / psy_rd=1.00:0.25 / mixed_ref=1 / me_range=24 / chroma_me=1 / trellis=1 / 8x8dct=1 / cqm=0 / deadzone=21,11 / fast_pskip=1 / chroma_qp_offset=-4 / threads=12 / lookahead_threads=2 / sliced_threads=0 / nr=0 / decimate=1 / interlaced=0 / bluray_compat=0 / constrained_intra=0 / bframes=3 / b_pyramid=2 / b_adapt=2 / b_bias=0 / direct=3 / weightb=1 / open_gop=0 / weightp=2 / keyint=240 / keyint_min=24 / scenecut=40 / intra_refresh=0 / rc_lookahead=50 / rc=2pass / mbtree=1 / bitrate=5968 / ratetol=1.0 / qcomp=0.60 / qpmin=0 / qpmax=69 / qpstep=4 / cplxblur=20.0 / qblur=0.5 / vbv_maxrate=62500 / vbv_bufsize=78125 / nal_hrd=none / filler=0 / ip_ratio=1.40 / aq=1:0.50
Default : Yes
Forced : No

Audio
ID : 2
Format : DTS
Format/Info : Digital Theater Systems
Mode : 16
Format settings, Endianness : Big
Codec ID : A_DTS
Duration : 1 h 23 min
Bit rate mode : Constant
Bit rate : 1 509 kb/s
Channel(s) : 6 channels
Channel positions : Front: L C R, Side: L R, LFE
Sampling rate : 48.0 kHz
Frame rate : 93.750 FPS (512 spf)
Bit depth : 24 bits
Compression mode : Lossy
Stream size : 902 MiB (20%)
Language : English
Default : Yes
Forced : No

Menu
00:00:00.000 : en:00:00:00.000
00:04:46.620 : en:00:04:46.620
00:11:48.416 : en:00:11:48.416
00:15:11.035 : en:00:15:11.035
00:19:58.322 : en:00:19:58.322
00:25:17.141 : en:00:25:17.141
00:30:35.876 : en:00:30:35.876
00:37:32.792 : en:00:37:32.792
00:42:25.752 : en:00:42:25.752
00:48:01.545 : en:00:48:01.545
00:53:33.585 : en:00:53:33.585
01:00:28.583 : en:01:00:28.583
01:05:21.501 : en:01:05:21.501
01:10:57.253 : en:01:10:57.253
01:16:20.284 : en:01:16:20.284
01:20:06.301 : en:01:20:06.301


Screenshots:

Blood and Glory The Civil War in Color (2015)

Blood and Glory The Civil War in Color (2015)

Blood and Glory The Civil War in Color (2015)

Blood and Glory The Civil War in Color (2015)