Blood Money (2012)

Posted By: NaVi7
Blood Money (2012)

Blood Money (2012)
DVDRip | AVI / XVID, 1427 Kbps | 624x352 | 1h 31mn | 1.36 GB
Francais: AC3, 448 Kbps (6 ch)
Genre: Action | Thriller

Ancien élève du Temple de Shaolin, Zheng est devenu un des tueurs à gages les plus redoutés de la planète. Surnommé "le 'dragon noir'", il va déclencher une véritable guerre entre les cartels colombiens et la mafia asiatique qui ont assassiné ses parents et kidnappé sa soeur. Zheng, impitoyable, fera appel à des techniques de combat ancestrales des plus violentes pour libérer sa soeur et leur faire payer la mort de ses parents.

imdb - 1 win.

General
Complete name : Blood.Money.2012.FRENCH.DVDRip.XviD.AC3-ARTEFAC.avi
Format : AVI
Format/Info : Audio Video Interleave
File size : 1.36 GiB
Duration : 1h 43mn
Overall bit rate : 1 885 Kbps
Writing application : FairUse Wizard - http://fairusewizard.com
Writing library : The best and REALLY easy backup tool

Video
ID : 0
Format : MPEG-4 Visual
Format profile : Advanced Simple@L5
Format settings, BVOP : 1
Format settings, QPel : No
Format settings, GMC : No warppoints
Format settings, Matrix : Default (MPEG)
Muxing mode : Packed bitstream
Codec ID : XVID
Codec ID/Hint : XviD
Duration : 1h 43mn
Bit rate : 1 427 Kbps
Width : 624 pixels
Height : 352 pixels
Display aspect ratio : 16:9
Frame rate : 25.000 fps
Color space : YUV
Chroma subsampling : 4:2:0
Bit depth : 8 bits
Scan type : Progressive
Compression mode : Lossy
Bits/(Pixel*Frame) : 0.260
Stream size : 1.03 GiB (76%)
Writing library : XviD 1.2.1 (UTC 2008-12-04)

Audio
ID : 1
Format : AC-3
Format/Info : Audio Coding 3
Mode extension : CM (complete main)
Format settings, Endianness : Big
Codec ID : 2000
Duration : 1h 43mn
Bit rate mode : Constant
Bit rate : 448 Kbps
Channel(s) : 6 channels
Channel positions : Front: L C R, Side: L R, LFE
Sampling rate : 48.0 KHz
Bit depth : 16 bits
Compression mode : Lossy
Stream size : 332 MiB (24%)
Alignment : Split accross interleaves
Interleave, duration : 40 ms (1.00 video frame)
Interleave, preload duration : 500 ms


Les captures d'ecran:

Blood Money (2012)

Blood Money (2012)

Blood Money (2012)


Bienvenue sur mon blog!

Abonnez-vous a ma newsletter!

Pas plus de miroirs!

Si vous voulez le telecharger, mais j'ai decouvert que les liens sont morts, il suffit de laisser un commentaire ou me PM!
Download Links:
Uploaded | Rapidgator
Liens vers RapidGator et Uploaded sont dans le fichier html. Telechargez le fichier et l'ouvrir dans votre navigateur.