Bohemian Rhapsody (2018)

Posted By: Tavaz
720p (HD) / BDRip IMDb
Bohemian Rhapsody (2018)

Bohemian Rhapsody (2018)
WEB-DL | MKV | 1280x536 | German / English | H264 @ 1426 kbps | DTS @ 768 kbps | 2 h 14 min | 3.48 GiB
Subtitles: German
Genre: Drama, Music

"Bohemian Rhapsody" erzählt die Geschichte wie Freddie Mercury und seine Bandmitglieder Brian May, Roger Taylor und John Deacon Queen gründeten – eine der legendärsten Rockgruppen aller Zeiten. Durch so grundverschiedene Songs wie „Killer Queen”, „Bohemian Rhapsody”, „We Are The Champions” und „We Will Rock You” sowie unzählige weitere Songs gelang der Band ein beispielloser Erfolg, der Freddie zu einem der beliebtesten Entertainer weltweit machte. Doch hinter der Fassade von Erfolg kämpft Freddie mit seiner inneren Zerrissenheit. Der aus Sansibar stammende Parse sucht unablässig nach seinem Platz in der Welt, während er gleichzeitig versucht, sich in einer Gesellschaft, die in Stereotypen und Erwartungen gefangen ist, mit einer Sexualität zu arrangieren, die er selbst kaum definieren kann. Freddie wagt es, sich zu widersetzen, aber zahlt auch den Preis dafür…

coincidence-bohemianrhapsody-720p.mkv (3.5 GB)
coincidence-bohemianrhapsody-720p-ger.idx (68.6 KB)
coincidence-bohemianrhapsody-720p-ger-forced.sub (106.0 KB)
coincidence-bohemianrhapsody-720p-eng.sub (8.2 MB)
coincidence-bohemianrhapsody-720p-ger-forced.idx (2.2 KB)
coincidence-bohemianrhapsody-720p-eng.idx (100.7 KB)
coincidence-bohemianrhapsody-720p-ger.sub (5.9 MB)
coincidence-bohemianrhapsody-720p-sample.mkv (30.9 MB)
coincidence-bohemianrhapsody-720p-proof.JPG (46.3 KB)



General
Unique ID : 200139478118631959616419621718384877742 (0x9691761E10E5436090478C5ED15EA0AE)
Complete name : ./Bohemian.Rhapsody.2018.German.DTS.DL.720p.BluRay.x264-COiNCiDENCE/coincidence-bohemianrhapsody-720p.mkv
Format : Matroska
Format version : Version 4 / Version 2
File size : 3.48 GiB
Duration : 2 h 14 min
Overall bit rate : 3 706 kb/s
Encoded date : UTC 2019-02-22 23:06:57
Writing application : mkvmerge v8.3.0 ('Over the Horizon') 64bit
Writing library : libebml v1.3.1 + libmatroska v1.4.2

Video
ID : 1
Format : AVC
Format/Info : Advanced Video Codec
Format profile : High@L4.1
Format settings : CABAC / 5 Ref Frames
Format settings, CABAC : Yes
Format settings, RefFrames : 5 frames
Codec ID : V_MPEG4/ISO/AVC
Duration : 2 h 14 min
Bit rate : 1 426 kb/s
Width : 1 280 pixels
Height : 536 pixels
Display aspect ratio : 2.40:1
Frame rate mode : Constant
Frame rate : 23.976 (24000/1001) FPS
Color space : YUV
Chroma subsampling : 4:2:0
Bit depth : 8 bits
Scan type : Progressive
Bits/(Pixel*Frame) : 0.087
Stream size : 1.34 GiB (38%)
Writing library : x264 core 157 r2935 545de2f
Encoding settings : cabac=1 / ref=5 / deblock=1:-1:-1 / analyse=0x3:0x113 / me=umh / subme=10 / psy=1 / psy_rd=1.00:0.00 / mixed_ref=1 / me_range=16 / chroma_me=1 / trellis=2 / 8x8dct=1 / cqm=0 / deadzone=21,11 / fast_pskip=0 / chroma_qp_offset=-2 / threads=80 / lookahead_threads=4 / sliced_threads=0 / nr=0 / decimate=1 / interlaced=0 / bluray_compat=0 / constrained_intra=0 / bframes=5 / b_pyramid=2 / b_adapt=1 / b_bias=0 / direct=3 / weightb=1 / open_gop=0 / weightp=1 / keyint=250 / keyint_min=23 / scenecut=40 / intra_refresh=0 / rc_lookahead=40 / rc=crf / mbtree=1 / crf=20.0 / qcomp=0.60 / qpmin=16 / qpmax=69 / qpstep=4 / ip_ratio=1.40 / aq=1:1.00
Language : English
Default : Yes
Forced : No

Audio #1
ID : 2
Format : DTS
Format/Info : Digital Theater Systems
Mode : 16
Format settings, Endianness : Big
Codec ID : A_DTS
Duration : 2 h 14 min
Bit rate mode : Constant
Bit rate : 768 kb/s
Channel(s) : 6 channels
Channel positions : Front: L C R, Side: L R, LFE
Sampling rate : 48.0 kHz
Frame rate : 93.750 FPS (512 SPF)
Bit depth : 24 bits
Compression mode : Lossy
Stream size : 739 MiB (21%)
Language : German
Default : Yes
Forced : No

Audio #2
ID : 3
Format : DTS
Format/Info : Digital Theater Systems
Format profile : ES Matrix / Core
Mode : 16
Format settings, Endianness : Big
Codec ID : A_DTS
Duration : 2 h 14 min
Bit rate mode : Constant
Bit rate : 1 509 kb/s
Channel(s) : 7 channels / 6 channels
Channel positions : Front: L C R, Side: L R, Back: C, LFE / Front: L C R, Side: L R, LFE
Sampling rate : 48.0 kHz
Frame rate : 93.750 FPS (512 SPF)
Bit depth : 24 bits
Compression mode : Lossy
Stream size : 1.42 GiB (41%)
Language : English
Default : No
Forced : No

Text
ID : 4
Format : UTF-8
Codec ID : S_TEXT/UTF8
Codec ID/Info : UTF-8 Plain Text
Duration : 2 h 0 min
Bit rate : 1 b/s
Count of elements : 27
Stream size : 980 Bytes (0%)
Title : German-Forced
Language : German
Default : Yes
Forced : Yes

Menu
00:00:00.000 : en:00:00:00.000
00:03:48.728 : en:00:03:48.728
00:07:45.465 : en:00:07:45.465
00:11:16.593 : en:00:11:16.593
00:17:41.811 : en:00:17:41.811
00:21:03.179 : en:00:21:03.179
00:27:24.184 : en:00:27:24.184
00:33:34.846 : en:00:33:34.846
00:37:22.282 : en:00:37:22.282
00:45:24.013 : en:00:45:24.013
00:52:19.595 : en:00:52:19.595
00:56:57.205 : en:00:56:57.205
01:03:11.413 : en:01:03:11.413
01:10:44.991 : en:01:10:44.991
01:15:25.730 : en:01:15:25.730
01:21:45.901 : en:01:21:45.901
01:26:59.172 : en:01:26:59.172
01:32:18.199 : en:01:32:18.199
01:36:43.923 : en:01:36:43.923
01:43:25.574 : en:01:43:25.574
01:50:23.283 : en:01:50:23.283
01:54:22.898 : en:01:54:22.898
02:00:41.109 : en:02:00:41.109
02:07:53.332 : en:02:07:53.332





Bohemian Rhapsody (2018)


Bohemian Rhapsody (2018)


Bohemian Rhapsody (2018)


Bohemian Rhapsody (2018)


Bohemian Rhapsody (2018)