Bohemian Rhapsody (2018)

Posted By: Without
SD / DVDRip IMDb
Bohemian Rhapsody (2018)

Bohemian Rhapsody (2018)
DVDScr | AVI | 720x304 | XviD@1698 kb/s | English AC3@384 kb/s | 6 channels | 2 h 14 min | 1.96 GB
Genre: Biography | Drama | Music

The story of the legendary rock music band Queen and its lead singer Freddie Mercury, leading up to their famous performance at Live Aid (1985).

IMDB - Top Rated Movies #138 | Won 2 Golden Globes. Another 8 wins & 39 nominations.


General
Bohemian.Rhapsody.2018.DVDScr.Xvid.AC3.SHQ.Hive-CM8.avi
Format : AVI
Format/Info : Audio Video Interleave
File size : 1.96 GiB
Duration : 2 h 14 min
Overall bit rate : 2 091 kb/s
Writing application : Nandub v1.0rc2
Writing library : Nandub build 1853/release

Video
ID : 0
Format : MPEG-4 Visual
Format profile : Advanced Simple@L5
Format settings, BVOP : 2
Format settings, QPel : Yes
Format settings, GMC : No warppoints
Format settings, Matrix : Default (H.263)
Muxing mode : Packed bitstream
Codec ID : XVID
Codec ID/Hint : XviD
Duration : 2 h 14 min
Bit rate : 1 698 kb/s
Width : 720 pixels
Height : 304 pixels
Display aspect ratio : 2.35:1
Frame rate : 23.976 (24000/1001) FPS
Color space : YUV
Chroma subsampling : 4:2:0
Bit depth : 8 bits
Scan type : Progressive
Compression mode : Lossy
Bits/(Pixel*Frame) : 0.323
Stream size : 1.60 GiB (81%)
Writing library : XviD 1.2.1 (UTC 2008-12-04)

Audio
ID : 1
Format : AC-3
Format/Info : Audio Coding 3
Mode extension : CM (complete main)
Format settings, Endianness : Big
Codec ID : 2000
Duration : 2 h 14 min
Bit rate mode : Constant
Bit rate : 384 kb/s
Channel(s) : 6 channels
Channel positions : Front: L C R, Side: L R, LFE
Sampling rate : 48.0 kHz
Frame rate : 31.250 FPS (1536 spf)
Bit depth : 16 bits
Compression mode : Lossy
Delay relative to video : 14 ms
Stream size : 369 MiB (18%)
Alignment : Split accross interleaves
Interleave, duration : 42 ms (1.00 video frame)
Interleave, preload duration : 500 ms



DVDScr Screenshots

Bohemian Rhapsody (2018)

Bohemian Rhapsody (2018)

Bohemian Rhapsody (2018)

Bohemian Rhapsody (2018)

Bohemian Rhapsody (2018)


Come Visit My Blog (•‿•)