Tags
Language
Tags

Bram Stoker's Dracula (1992)

Posted By: Tavaz
1080p (FullHD) / BDRip IMDb
Bram Stoker's Dracula (1992)

Bram Stoker's Dracula (1992)
BDRip | MKV | 1920x1080 | English | H264 @ 5760 kbps | AC-3 @ 448 kbps | 2 h 7 min | 5.69 GiB
Subtitles: English
Genre: Romance, Horror

When Dracula leaves the captive Jonathan Harker and Transylvania for London in search of Mina Harker, the reincarnation of Dracula's long-dead wife Elisabeta, obsessed vampire hunter Dr. Van Helsing sets out to end the madness.

5b753bad2028cc77a6807c1a1326f43e.mkv (5.7 GB)



General
Unique ID : 186733915151050772127824758442840070334 (0x8C7BA4D576DF45E66EFE111D8A1898BE)
Complete name : ./5b753bad2028cc77a6807c1a1326f43e.mkv
Format : Matroska
Format version : Version 4 / Version 2
File size : 5.69 GiB
Duration : 2 h 7 min
Overall bit rate : 6 397 kb/s
Movie name : Bram.Stokers.Dracula.1992.1080p.BluRay.x264-nikt0
Encoded date : UTC 2021-01-11 02:37:00 / UTC 2021-01-10T05:51:16Z
Writing application : mkvmerge v47.0.0 ('Black Flag') 64-bit
Writing library : libebml v1.3.10 + libmatroska v1.5.2 / Lavf57.7.2

Video
ID : 1
Format : AVC
Format/Info : Advanced Video Codec
Format profile : High@L4
Format settings : CABAC / 4 Ref Frames
Format settings, CABAC : Yes
Format settings, RefFrames : 4 frames
Codec ID : V_MPEG4/ISO/AVC
Duration : 2 h 7 min
Bit rate : 5 760 kb/s
Width : 1 920 pixels
Height : 1 080 pixels
Display aspect ratio : 16:9
Frame rate mode : Constant
Frame rate : 23.976 (24000/1001) FPS
Color space : YUV
Chroma subsampling : 4:2:0
Bit depth : 8 bits
Scan type : Progressive
Bits/(Pixel*Frame) : 0.116
Stream size : 5.01 GiB (88%)
Writing library : x264 core 155 r2901 7d0ff22
Encoding settings : cabac=1 / ref=4 / deblock=1:-3:-3 / analyse=0x3:0x133 / me=umh / subme=9 / psy=1 / psy_rd=1.10:0.25 / mixed_ref=1 / me_range=32 / chroma_me=1 / trellis=2 / 8x8dct=1 / cqm=0 / deadzone=6,6 / fast_pskip=1 / chroma_qp_offset=-4 / threads=34 / lookahead_threads=3 / sliced_threads=0 / nr=0 / decimate=1 / interlaced=0 / bluray_compat=0 / constrained_intra=0 / bframes=6 / b_pyramid=2 / b_adapt=2 / b_bias=0 / direct=3 / weightb=1 / open_gop=0 / weightp=2 / keyint=240 / keyint_min=24 / scenecut=40 / intra_refresh=0 / rc_lookahead=40 / rc=2pass / mbtree=1 / bitrate=5760 / ratetol=1.0 / qcomp=0.60 / qpmin=0 / qpmax=69 / qpstep=4 / cplxblur=20.0 / qblur=0.5 / vbv_maxrate=20000 / vbv_bufsize=25000 / nal_hrd=none / filler=0 / ip_ratio=1.40 / aq=1:1.00
Language : English
Default : Yes
Forced : No
Color range : Limited
Color primaries : BT.709
Transfer characteristics : BT.709
Matrix coefficients : BT.709
Statistics Tags Issue : mkvmerge v47.0.0 ('Black Flag') 64-bit 2021-01-11 02:37:00 / mkvmerge v47.0.0 ('Black Flag') 64-bit 2021-01-11 02:37:00 / UTC 2021-01-10T05:51:16Z
FromStats_BitRate : 5755056
FromStats_Duration : 02:07:21.634000000
FromStats_FrameCount : 183216
FromStats_StreamSize : 5497254214

Audio #1
ID : 2
Format : AC-3
Format/Info : Audio Coding 3
Format settings, Endianness : Big
Codec ID : A_AC3
Duration : 2 h 7 min
Bit rate mode : Constant
Bit rate : 448 kb/s
Channel(s) : 6 channels
Channel positions : Front: L C R, Side: L R, LFE
Sampling rate : 48.0 kHz
Frame rate : 31.250 FPS (1536 SPF)
Bit depth : 16 bits
Compression mode : Lossy
Stream size : 408 MiB (7%)
Title : Surround
Language : English
Service kind : Complete Main
Default : Yes
Forced : No
Statistics Tags Issue : mkvmerge v47.0.0 ('Black Flag') 64-bit 2021-01-11 02:37:00 / mkvmerge v47.0.0 ('Black Flag') 64-bit 2021-01-11 02:37:00 / UTC 2021-01-10T05:51:16Z
FromStats_BitRate : 448000
FromStats_Duration : 02:07:21.632000000
FromStats_FrameCount : 238801
FromStats_StreamSize : 427931392

Audio #2
ID : 3
Format : AC-3
Format/Info : Audio Coding 3
Mode : Dolby Digital
Format settings, Endianness : Big
Codec ID : A_AC3
Duration : 2 h 7 min
Bit rate mode : Constant
Bit rate : 192 kb/s
Channel(s) : 2 channels
Channel positions : Front: L R
Sampling rate : 48.0 kHz
Frame rate : 31.250 FPS (1536 SPF)
Bit depth : 16 bits
Compression mode : Lossy
Stream size : 175 MiB (3%)
Title : Stereo commentary
Language : English
Service kind : Complete Main
Default : No
Forced : No
Statistics Tags Issue : mkvmerge v47.0.0 ('Black Flag') 64-bit 2021-01-11 02:37:00 / mkvmerge v47.0.0 ('Black Flag') 64-bit 2021-01-11 02:37:00 / UTC 2021-01-10T05:51:16Z
FromStats_BitRate : 192000
FromStats_Duration : 02:07:21.664000000
FromStats_FrameCount : 238802
FromStats_StreamSize : 183399936

Text
ID : 4
Format : UTF-8
Codec ID : S_TEXT/UTF8
Codec ID/Info : UTF-8 Plain Text
Language : English
Default : Yes
Forced : No
Statistics Tags Issue : mkvmerge v47.0.0 ('Black Flag') 64-bit 2021-01-11 02:37:00 / mkvmerge v47.0.0 ('Black Flag') 64-bit 2021-01-11 02:37:00 / UTC 2021-01-10T05:51:16Z
FromStats_BitRate : 47
FromStats_Duration : 02:02:59.239000000
FromStats_FrameCount : 1454
FromStats_StreamSize : 43641

Menu
00:00:00.000 : :Chapter 1
00:05:44.928 : :Chapter 2
00:12:28.373 : :Chapter 3
00:23:15.144 : :Chapter 4
00:35:33.214 : :Chapter 5
00:37:45.263 : :Chapter 6
00:43:37.532 : :Chapter 7
00:48:04.757 : :Chapter 8
00:54:35.856 : :Chapter 9
01:08:08.876 : :Chapter 10
01:12:22.797 : :Chapter 11
01:17:45.369 : :Chapter 12
01:23:17.993 : :Chapter 13
01:35:31.017 : :Chapter 14
01:48:19.868 : :Chapter 15
01:55:28.630 : :Chapter 16





Bram Stoker's Dracula (1992)


Bram Stoker's Dracula (1992)


Bram Stoker's Dracula (1992)


Bram Stoker's Dracula (1992)


Bram Stoker's Dracula (1992)