Subcategories

Bride of Re-Animator (1989)

Posted By: king-ston
Bride of Re-Animator (1989)

Bride of Re-Animator (1989)
BDRip | MKV | AVC, 9609 Kbps | 1920x1080 | 23.976 fps | 6.91 GB | Runtime: 96 Min
Audio : English Ac3 640 Kbps | 2 channels | 48 KHz | Subtitle : None
Genre: Comedy | Horror | Sci-Fi | Thriller

In Peru, Dr. Herbert West and Dr. Dan Cain are medical volunteers in a civil war with the assistant Francesca Danelli and they are researching how to create human life from dead tissue using wounded soldiers as guinea pigs. They return to Miskatonic Hospital and Dan treats a terminal patient, Gloria, and gets close to her. When the snoopy Lt. Leslie Chapham investigates the Miskatonic Massacre, he learns that body parts are missing in the morgue, and Herbert and Dan become his prime suspects. But Herbert kills the lieutenant and revives him with the serum. Meanwhile, Dr. Graves finds the head of Dr. Carl Hill and the green substance that the deceased doctor stole from Herbert, and uses the serum to resurrect Dr. Hill's head. When Gloria dies, Herbert and Dan use her head, with Meg's heart and parts of other women to create the perfect woman. But Lt. Chapham teams up with Dr. Hill to seek revenge against the crazy scientists.
IMDB


Video
ID : 1
Format : AVC
Format/Info : Advanced Video Codec
Format profile : High@L4.1
Format settings, CABAC : Yes
Format settings, ReFrames : 4 frames
Codec ID : V_MPEG4/ISO/AVC
Duration : 1h 36mn
Bit rate : 9 609 Kbps
Width : 1 920 pixels
Height : 1 080 pixels
Display aspect ratio : 16:9
Frame rate mode : Constant
Frame rate : 23.976 (24000/1001) fps
Color space : YUV
Chroma subsampling : 4:2:0
Bit depth : 8 bits
Scan type : Progressive
Bits/(Pixel*Frame) : 0.193
Stream size : 6.35 GiB (92%)
Writing library : x264 core 142 r2389 956c8d8
Encoding settings : cabac=1 / ref=4 / deblock=1:-3:-3 / analyse=0x3:0x113 / me=umh / subme=8 / psy=1 / psy_rd=1.00:0.15 / mixed_ref=1 / me_range=16 / chroma_me=1 / trellis=1 / 8x8dct=1 / cqm=0 / deadzone=21,11 / fast_pskip=0 / chroma_qp_offset=-3 / threads=12 / lookahead_threads=2 / sliced_threads=0 / nr=0 / decimate=1 / interlaced=0 / bluray_compat=0 / constrained_intra=0 / bframes=3 / b_pyramid=2 / b_adapt=2 / b_bias=0 / direct=3 / weightb=1 / open_gop=0 / weightp=2 / keyint=240 / keyint_min=24 / scenecut=40 / intra_refresh=0 / rc_lookahead=50 / rc=2pass / mbtree=1 / bitrate=9609 / ratetol=1.0 / qcomp=0.60 / qpmin=0 / qpmax=69 / qpstep=4 / cplxblur=20.0 / qblur=0.5 / ip_ratio=1.40 / aq=1:1.00
Language : English
Default : Yes
Forced : No

Audio
ID : 2
Format : AC-3
Format/Info : Audio Coding 3
Mode extension : CM (complete main)
Format settings, Endianness : Big
Codec ID : A_AC3
Duration : 1h 36mn
Bit rate mode : Constant
Bit rate : 640 Kbps
Channel(s) : 2 channels
Channel positions : Front: L R
Sampling rate : 48.0 KHz
Frame rate : 31.250 fps (1536 spf)
Compression mode : Lossy
Stream size : 443 MiB (6%)
Language : English
Default : Yes
Forced : No


Bride of Re-Animator (1989)