Tags
Language
Tags

Bridget Jones's Baby (2016)

Posted By: Tavaz
1080p (FullHD) / BDRip IMDb
Bridget Jones's Baby (2016)

Bridget Jones's Baby (2016)
BDRip | MKV | 1920x808 | English | H265 @ 1721 kbps | AAC @ 200 kbps | 2 h 2 min | 1.65 GiB
Subtitles: English
Genre: Comedy, Romance

Breaking up with Mark Darcy leaves Bridget Jones over 40 and single again. Feeling that she has everything under control, Jones decides to focus on her career as a top news producer. Suddenly, her love life comes back from the dead when she meets a dashing and handsome American named Jack. Things couldn't be better, until Bridget discovers that she is pregnant. Now, the befuddled mom-to-be must figure out if the proud papa is Mark or Jack.

67e9ca7cae77b6027aa3c6683d42de4d.mkv (1.6 GB)



General
Unique ID : 203024757614318412670421750855076181296 (0x98BD25612EB9DFCB985D825F1BC07530)
Complete name : ./67e9ca7cae77b6027aa3c6683d42de4d.mkv
Format : Matroska
Format version : Version 4 / Version 2
File size : 1.65 GiB
Duration : 2 h 2 min
Overall bit rate : 1 924 kb/s
Movie name : PSArips.com | Bridget.Jones'.Baby.2016.1080p.10bit.BluRay.6CH.x265.HEVC-PSA
Encoded date : UTC 2016-12-12 05:07:36
Writing application : mkvmerge v9.6.0 ('Slave To Your Mind') 64bit
Writing library : libebml v1.3.4 + libmatroska v1.4.5

Video
ID : 1
Format : HEVC
Format/Info : High Efficiency Video Coding
Format profile : Main 10@L4@Main
Codec ID : V_MPEGH/ISO/HEVC
Duration : 2 h 2 min
Bit rate : 1 722 kb/s
Width : 1 920 pixels
Height : 808 pixels
Display aspect ratio : 2.40:1
Frame rate mode : Constant
Frame rate : 23.976 (24000/1001) FPS
Color space : YUV
Chroma subsampling : 4:2:0
Bit depth : 10 bits
Bits/(Pixel*Frame) : 0.046
Stream size : 1.47 GiB (89%)
Default : Yes
Forced : No
Color range : Limited
Color primaries : BT.709
Transfer characteristics : BT.709
Matrix coefficients : BT.709

Audio
ID : 2
Format : AAC
Format/Info : Advanced Audio Codec
Format profile : HE-AAC / LC
Format settings : Explicit
Codec ID : A_AAC-2
Duration : 2 h 2 min
Bit rate : 200 kb/s
Channel(s) : 6 channels
Channel(s)_Original : 18 channels
Channel positions : Front: 14, Side: C, Back: C, LFE= 2
Sampling rate : 48.0 kHz / 24.0 kHz
Frame rate : 23.438 FPS (1024 SPF)
Compression mode : Lossy
Delay relative to video : 23 ms
Stream size : 176 MiB (10%)
Language : English
Default : Yes
Forced : No

Text
ID : 3
Format : UTF-8
Codec ID : S_TEXT/UTF8
Codec ID/Info : UTF-8 Plain Text
Duration : 1 h 54 min
Bit rate : 70 b/s
Count of elements : 1354
Stream size : 58.5 KiB (0%)
Title : ENG
Language : English
Default : Yes
Forced : No

Menu
00:00:00.000 : :Chapter 1
00:08:49.600 : :Chapter 2
00:16:21.600 : :Chapter 3
00:24:09.800 : :Chapter 4
00:29:54.800 : :Chapter 5
00:34:51.400 : :Chapter 6
00:41:29.400 : :Chapter 7
00:47:42.600 : :Chapter 8
00:52:05.600 : :Chapter 9
00:57:45.000 : :Chapter 10
01:03:38.400 : :Chapter 11
01:08:13.000 : :Chapter 12
01:13:17.800 : :Chapter 13
01:20:48.800 : :Chapter 14
01:27:33.000 : :Chapter 15
01:37:28.200 : :Chapter 16
01:43:18.600 : :Chapter 17
01:48:10.800 : :Chapter 18
01:51:53.800 : :Chapter 19
01:56:08.000 : :Chapter 20





Bridget Jones's Baby (2016)


Bridget Jones's Baby (2016)


Bridget Jones's Baby (2016)


Bridget Jones's Baby (2016)


Bridget Jones's Baby (2016)