Bridget Jones's Baby (2016)

Posted By: Without
Bridget Jones's Baby (2016)

Bridget Jones's Baby (2016)
BDRip | MKV | 720x302 | AVC@790 kb/s | English AAC@117 kb/s | Subs: English | 2 channels | 2 h 2 min | 797 MB
BRRip | AVI | 720x302 | XviD@1595 kb/s | English AC3@448 kb/s | 6 channels | 2 h 2 min | 1.75 GB
BDRip 720p | MKV | 1280x536 | AVC@4869 kb/s | English DTS@1509 kb/s | 6 channels | 2 h 2 min | 5.46 GB
BDRip 1080p | MKV | 1920x808 | AVC@8699 kb/s | English DTS@1509 kb/s | 6 channels | 2 h 2 min | 8.73 GB
Genre: Comedy, Romance

Bridget's focus on single life and her career is interrupted when she finds herself pregnant, but with one hitch … she can only be fifty percent sure of the identity of her baby's father.



General
Unique ID : 214437524685889405156331693298748527728 (0xA1532A3D649CFDD9BE44CBE953589470)
Complete name : J:\Bridget.Joness.Baby.2016.BDRip.x264-SPARKS.mkv
Format : Matroska
Format version : Version 4 / Version 2
File size : 797 MiB
Duration : 2 h 2 min
Overall bit rate : 909 kb/s
Encoded date : UTC 2016-12-01 04:36:02
Writing application : mkvmerge v8.3.0 ('Over the Horizon') 64bit
Writing library : libebml v1.3.1 + libmatroska v1.4.2

Video
ID : 1
Format : AVC
Format/Info : Advanced Video Codec
Format profile : High@L3.1
Format settings, CABAC : Yes
Format settings, ReFrames : 5 frames
Codec ID : V_MPEG4/ISO/AVC
Duration : 2 h 2 min
Bit rate : 790 kb/s
Width : 720 pixels
Height : 302 pixels
Display aspect ratio : 2.40:1
Frame rate mode : Constant
Frame rate : 23.976 FPS
Color space : YUV
Chroma subsampling : 4:2:0
Bit depth : 8 bits
Scan type : Progressive
Bits/(Pixel*Frame) : 0.152
Stream size : 693 MiB (87%)
Title : X264
Writing library : x264 core 148 r2705 3f5ed56
Encoding settings : cabac=1 / ref=5 / deblock=1:-2:-2 / analyse=0x3:0x113 / me=umh / subme=8 / psy=1 / psy_rd=0.90:0.00 / mixed_ref=1 / me_range=16 / chroma_me=1 / trellis=1 / 8x8dct=1 / cqm=0 / deadzone=21,11 / fast_pskip=1 / chroma_qp_offset=-2 / threads=9 / lookahead_threads=1 / sliced_threads=0 / nr=0 / decimate=1 / interlaced=0 / bluray_compat=0 / constrained_intra=0 / bframes=3 / b_pyramid=2 / b_adapt=2 / b_bias=0 / direct=3 / weightb=1 / open_gop=0 / weightp=2 / keyint=250 / keyint_min=23 / scenecut=40 / intra_refresh=0 / rc_lookahead=50 / rc=crf / mbtree=1 / crf=19.0 / qcomp=0.60 / qpmin=0 / qpmax=69 / qpstep=4 / ip_ratio=1.40 / aq=1:1.00
Language : English
Default : Yes
Forced : No
Color range : Limited
Matrix coefficients : BT.709

Audio
ID : 2
Format : AAC
Format/Info : Advanced Audio Codec
Format profile : LC
Codec ID : A_AAC
Duration : 2 h 2 min
Bit rate : 117 kb/s
Channel(s) : 2 channels
Channel positions : Front: L R
Sampling rate : 48.0 kHz
Frame rate : 46.875 FPS (1024 spf)
Compression mode : Lossy
Stream size : 102 MiB (13%)
Language : English
Default : Yes
Forced : No

Menu
00:00:00.000 : en:00:00:00.000
00:08:49.529 : en:00:08:49.529
00:16:21.564 : en:00:16:21.564
00:24:09.657 : en:00:24:09.657
00:29:54.626 : en:00:29:54.626
00:34:51.298 : en:00:34:51.298
00:41:29.237 : en:00:41:29.237
00:47:42.401 : en:00:47:42.401
00:52:05.456 : en:00:52:05.456
00:57:44.836 : en:00:57:44.836
01:03:38.314 : en:01:03:38.314
01:08:12.880 : en:01:08:12.880
01:13:17.476 : en:01:13:17.476
01:20:48.552 : en:01:20:48.552
01:27:32.998 : en:01:27:32.998
01:37:28.176 : en:01:37:28.176
01:43:18.442 : en:01:43:18.442
01:48:10.567 : en:01:48:10.567
01:51:53.665 : en:01:51:53.665
01:56:07.794 : en:01:56:07.794

General
Complete name : J:\Torrents\Bridget.Joness.Baby.2016.BRRip.XviD.AC3-RARBG\Bridget.Joness.Baby.2016.BRRip.XviD.AC3-RARBG.avi
Format : AVI
Format/Info : Audio Video Interleave
File size : 1.76 GiB
Duration : 2 h 2 min
Overall bit rate : 2 052 kb/s
Writing application : Lavf56.40.101
Writing library : VirtualDub build 35491/release

Video
ID : 0
Format : MPEG-4 Visual
Format profile : Simple@L5
Format settings, BVOP : No
Format settings, QPel : No
Format settings, GMC : No warppoints
Format settings, Matrix : Default (H.263)
Codec ID : XVID
Codec ID/Hint : XviD
Duration : 2 h 2 min
Bit rate : 1 595 kb/s
Width : 720 pixels
Height : 302 pixels
Display aspect ratio : 2.40:1
Frame rate : 23.976 (24000/1001) FPS
Color space : YUV
Chroma subsampling : 4:2:0
Bit depth : 8 bits
Scan type : Progressive
Compression mode : Lossy
Bits/(Pixel*Frame) : 0.306
Stream size : 1.37 GiB (78%)
Writing library : Lavc56.60.100

Audio
ID : 1
Format : AC-3
Format/Info : Audio Coding 3
Mode extension : CM (complete main)
Format settings, Endianness : Big
Codec ID : 2000
Duration : 2 h 2 min
Bit rate mode : Constant
Bit rate : 448 kb/s
Channel(s) : 6 channels
Channel positions : Front: L C R, Side: L R, LFE
Sampling rate : 48.0 kHz
Frame rate : 31.250 FPS (1536 spf)
Bit depth : 16 bits
Compression mode : Lossy
Stream size : 393 MiB (22%)
Alignment : Aligned on interleaves
Interleave, duration : 42 ms (1.00 video frame)
Interleave, preload duration : 512 ms

General
Unique ID : 205547228916641148264648620759218761922 (0x9AA2F4D11A04A0CA8107008B6FCDB0C2)
Complete name : J:\Bridget.Joness.Baby.2016.720p.BluRay.x264-SPARKS.mkv
Format : Matroska
Format version : Version 4 / Version 2
File size : 5.46 GiB
Duration : 2 h 2 min
Overall bit rate : 6 379 kb/s
Encoded date : UTC 2016-12-01 04:11:03
Writing application : mkvmerge v8.3.0 ('Over the Horizon') 64bit
Writing library : libebml v1.3.1 + libmatroska v1.4.2

Video
ID : 1
Format : AVC
Format/Info : Advanced Video Codec
Format profile : High@L4.1
Format settings, CABAC : Yes
Format settings, ReFrames : 5 frames
Codec ID : V_MPEG4/ISO/AVC
Duration : 2 h 2 min
Bit rate : 4 869 kb/s
Width : 1 280 pixels
Height : 536 pixels
Display aspect ratio : 2.40:1
Frame rate mode : Constant
Frame rate : 23.976 FPS
Color space : YUV
Chroma subsampling : 4:2:0
Bit depth : 8 bits
Scan type : Progressive
Bits/(Pixel*Frame) : 0.296
Stream size : 4.17 GiB (76%)
Writing library : x264 core 148 r2705 3f5ed56
Encoding settings : cabac=1 / ref=5 / deblock=1:0:0 / analyse=0x3:0x133 / me=umh / subme=7 / psy=1 / psy_rd=1.00:0.00 / mixed_ref=1 / me_range=16 / chroma_me=1 / trellis=1 / 8x8dct=1 / cqm=0 / deadzone=21,11 / fast_pskip=0 / chroma_qp_offset=-2 / threads=17 / lookahead_threads=2 / sliced_threads=0 / nr=0 / decimate=1 / interlaced=0 / bluray_compat=0 / constrained_intra=0 / bframes=3 / b_pyramid=2 / b_adapt=1 / b_bias=0 / direct=1 / weightb=1 / open_gop=0 / weightp=2 / keyint=250 / keyint_min=23 / scenecut=40 / intra_refresh=0 / rc_lookahead=40 / rc=2pass / mbtree=1 / bitrate=4869 / ratetol=1.0 / qcomp=0.60 / qpmin=0 / qpmax=69 / qpstep=4 / cplxblur=20.0 / qblur=0.5 / ip_ratio=1.40 / aq=1:1.00
Language : English
Default : Yes
Forced : No

Audio
ID : 2
Format : DTS
Format/Info : Digital Theater Systems
Mode : 16
Format settings, Endianness : Big
Codec ID : A_DTS
Duration : 2 h 2 min
Bit rate mode : Constant
Bit rate : 1 509 kb/s
Channel(s) : 6 channels
Channel positions : Front: L C R, Side: L R, LFE
Sampling rate : 48.0 kHz
Frame rate : 93.750 FPS (512 spf)
Bit depth : 24 bits
Compression mode : Lossy
Stream size : 1.29 GiB (24%)
Language : English
Default : Yes
Forced : No

Menu
00:00:00.000 : en:00:00:00.000
00:08:49.529 : en:00:08:49.529
00:16:21.564 : en:00:16:21.564
00:24:09.657 : en:00:24:09.657
00:29:54.626 : en:00:29:54.626
00:34:51.298 : en:00:34:51.298
00:41:29.237 : en:00:41:29.237
00:47:42.401 : en:00:47:42.401
00:52:05.456 : en:00:52:05.456
00:57:44.836 : en:00:57:44.836
01:03:38.314 : en:01:03:38.314
01:08:12.880 : en:01:08:12.880
01:13:17.476 : en:01:13:17.476
01:20:48.552 : en:01:20:48.552
01:27:32.998 : en:01:27:32.998
01:37:28.176 : en:01:37:28.176
01:43:18.442 : en:01:43:18.442
01:48:10.567 : en:01:48:10.567
01:51:53.665 : en:01:51:53.665
01:56:07.794 : en:01:56:07.794

General
Unique ID : 249110068538256375362665908799183517403 (0xBB68DAA2AB099DB09D1A241FB3EBF6DB)
Complete name : J:\Bridget.Joness.Baby.2016.1080p.BluRay.x264-SPARKS.mkv
Format : Matroska
Format version : Version 4 / Version 2
File size : 8.74 GiB
Duration : 2 h 2 min
Overall bit rate : 10.2 Mb/s
Encoded date : UTC 2016-12-01 06:55:39
Writing application : mkvmerge v8.3.0 ('Over the Horizon') 64bit
Writing library : libebml v1.3.1 + libmatroska v1.4.2

Video
ID : 1
Format : AVC
Format/Info : Advanced Video Codec
Format profile : High@L4.1
Format settings, CABAC : Yes
Format settings, ReFrames : 5 frames
Codec ID : V_MPEG4/ISO/AVC
Duration : 2 h 2 min
Bit rate : 8 699 kb/s
Width : 1 920 pixels
Height : 808 pixels
Display aspect ratio : 2.40:1
Frame rate mode : Constant
Frame rate : 23.976 FPS
Color space : YUV
Chroma subsampling : 4:2:0
Bit depth : 8 bits
Scan type : Progressive
Bits/(Pixel*Frame) : 0.234
Stream size : 7.44 GiB (85%)
Writing library : x264 core 148 r2705 3f5ed56
Encoding settings : cabac=1 / ref=5 / deblock=1:0:0 / analyse=0x3:0x133 / me=umh / subme=7 / psy=1 / psy_rd=1.00:0.00 / mixed_ref=1 / me_range=16 / chroma_me=1 / trellis=1 / 8x8dct=1 / cqm=0 / deadzone=21,11 / fast_pskip=0 / chroma_qp_offset=-2 / threads=18 / lookahead_threads=3 / sliced_threads=0 / nr=0 / decimate=1 / interlaced=0 / bluray_compat=0 / constrained_intra=0 / bframes=3 / b_pyramid=2 / b_adapt=1 / b_bias=0 / direct=1 / weightb=1 / open_gop=0 / weightp=2 / keyint=250 / keyint_min=23 / scenecut=40 / intra_refresh=0 / rc_lookahead=40 / rc=2pass / mbtree=1 / bitrate=8699 / ratetol=1.0 / qcomp=0.60 / qpmin=0 / qpmax=69 / qpstep=4 / cplxblur=20.0 / qblur=0.5 / ip_ratio=1.40 / aq=1:1.00
Language : English
Default : Yes
Forced : No

Audio
ID : 2
Format : DTS
Format/Info : Digital Theater Systems
Mode : 16
Format settings, Endianness : Big
Codec ID : A_DTS
Duration : 2 h 2 min
Bit rate mode : Constant
Bit rate : 1 509 kb/s
Channel(s) : 6 channels
Channel positions : Front: L C R, Side: L R, LFE
Sampling rate : 48.0 kHz
Frame rate : 93.750 FPS (512 spf)
Bit depth : 24 bits
Compression mode : Lossy
Stream size : 1.29 GiB (15%)
Language : English
Default : Yes
Forced : No

Menu
00:00:00.000 : en:00:00:00.000
00:08:49.529 : en:00:08:49.529
00:16:21.564 : en:00:16:21.564
00:24:09.657 : en:00:24:09.657
00:29:54.626 : en:00:29:54.626
00:34:51.298 : en:00:34:51.298
00:41:29.237 : en:00:41:29.237
00:47:42.401 : en:00:47:42.401
00:52:05.456 : en:00:52:05.456
00:57:44.836 : en:00:57:44.836
01:03:38.314 : en:01:03:38.314
01:08:12.880 : en:01:08:12.880
01:13:17.476 : en:01:13:17.476
01:20:48.552 : en:01:20:48.552
01:27:32.998 : en:01:27:32.998
01:37:28.176 : en:01:37:28.176
01:43:18.442 : en:01:43:18.442
01:48:10.567 : en:01:48:10.567
01:51:53.665 : en:01:51:53.665
01:56:07.794 : en:01:56:07.794


BDRip Screenshots

Bridget Jones's Baby (2016)

Bridget Jones's Baby (2016)

Bridget Jones's Baby (2016)


BRRip Screenshots

Bridget Jones's Baby (2016)

Bridget Jones's Baby (2016)

Bridget Jones's Baby (2016)


BDRip 720p Screenshots

Bridget Jones's Baby (2016)

Bridget Jones's Baby (2016)

Bridget Jones's Baby (2016)


BDRip 1080p Screenshots

Bridget Jones's Baby (2016)

Bridget Jones's Baby (2016)

Bridget Jones's Baby (2016)


Come Visit My Blog (•‿•)


BDRip


Single Link

Bridget.Joness.Baby.2016.BDRip.x264-SPARKS.rar

BRRip


Single Link

Bridget.Joness.Baby.2016.BRRip.XviD.AC3-RARBG.avi

900 MB Links

Bridget.Joness.Baby.2016.BRRip.XviD.AC3-RARBG.part1.rar
Bridget.Joness.Baby.2016.BRRip.XviD.AC3-RARBG.part2.rar
Bridget.Joness.Baby.2016.BRRip.XviD.AC3-RARBG.part3.rar
Bridget.Joness.Baby.2016.BRRip.XviD.AC3-RARBG.part4.rar

BDRip 720p


Single Link

Bridget.Joness.Baby.2016.720p.BluRay.x264-SPARKS.mkv

900 MB Links

Bridget.Joness.Baby.2016.720p.BluRay.x264-SPARKS.part1.rar
Bridget.Joness.Baby.2016.720p.BluRay.x264-SPARKS.part2.rar
Bridget.Joness.Baby.2016.720p.BluRay.x264-SPARKS.part3.rar
Bridget.Joness.Baby.2016.720p.BluRay.x264-SPARKS.part4.rar
Bridget.Joness.Baby.2016.720p.BluRay.x264-SPARKS.part5.rar
Bridget.Joness.Baby.2016.720p.BluRay.x264-SPARKS.part6.rar
Bridget.Joness.Baby.2016.720p.BluRay.x264-SPARKS.part7.rar

BDRip 1080p


Single Link

Bridget.Joness.Baby.2016.1080p.BluRay.x264-SPARKS.mkv

900 MB Links

Bridget.Joness.Baby.2016.1080p.BluRay.x264-SPARKS.part01.rar
Bridget.Joness.Baby.2016.1080p.BluRay.x264-SPARKS.part02.rar
Bridget.Joness.Baby.2016.1080p.BluRay.x264-SPARKS.part03.rar
Bridget.Joness.Baby.2016.1080p.BluRay.x264-SPARKS.part04.rar
Bridget.Joness.Baby.2016.1080p.BluRay.x264-SPARKS.part05.rar
Bridget.Joness.Baby.2016.1080p.BluRay.x264-SPARKS.part06.rar
Bridget.Joness.Baby.2016.1080p.BluRay.x264-SPARKS.part07.rar
Bridget.Joness.Baby.2016.1080p.BluRay.x264-SPARKS.part08.rar
Bridget.Joness.Baby.2016.1080p.BluRay.x264-SPARKS.part09.rar
Bridget.Joness.Baby.2016.1080p.BluRay.x264-SPARKS.part10.rar