Broken Arrow / Сломанная стрела (1950)

Posted By: RSU75
Broken Arrow / Сломанная стрела (1950)

Broken Arrow / Сломанная стрела (1950)
DVDRip | MKV | AVC 720x480, ~ 1.6 Mbps | 1hr 32mn | 1.66 GB
English \ French \ Spanish \ Russian: AC3, 2 ch, 192 kbps
Subtitles: English, French, Spanish
Genre: Drama, Romance, Western
IMDB Rating: 7.2/10 (5.911 votes)


Director: Delmer Daves
Writers: Elliott Arnold (novel), Albert Maltz (screenplay)
Stars: James Stewart, Jeff Chandler, Debra Paget

By 1870, there has been 10 years of cruel war between settlers and Cochise's Apaches. Ex-soldier Tom Jeffords saves the life of an Apache boy and starts to wonder if Indians are human, after all; soon, he determines to use this chance to make himself an ambassador. Against all odds, his solitary mission into Cochise's stronghold opens a dialogue. Opportunely, the president sends General Howard with orders to conclude peace. But even with Jeffords's luck, the deep grievance and hatred on both sides make tragic failure all too likely.





General
Unique ID : 207690679868541673936029795739162115185 (0x9C3FC51BA20F133E9BA198FF05D3FC71)
Complete name : L:\BrokenArrow.50.Dr.All\BrokenArrow.50.Dr.All.mkv
Format : Matroska
Format version : Version 4 / Version 2
File size : 1.66 GiB
Duration : 1 h 32 min
Overall bit rate : 2 571 kb/s
Movie name : Release RSU75
Encoded date : UTC 2017-09-07 03:49:26
Writing application : mkvmerge v6.6.0 ('The Edge Of The In Between') built on Dec 1 2013 17:55:00
Writing library : libebml v1.3.0 + libmatroska v1.4.1

Video
ID : 1
Format : AVC
Format/Info : Advanced Video Codec
Format profile : High@L3
Format settings, CABAC : Yes
Format settings, ReFrames : 4 frames
Codec ID : V_MPEG4/ISO/AVC
Duration : 1 h 32 min
Bit rate : 1 600 kb/s
Width : 720 pixels
Height : 480 pixels
Display aspect ratio : 4:3
Frame rate mode : Constant
Frame rate : 23.976 (23976/1000) FPS
Color space : YUV
Chroma subsampling : 4:2:0
Bit depth : 8 bits
Scan type : Progressive
Bits/(Pixel*Frame) : 0.193
Stream size : 1.01 GiB (61%)
Writing library : x264 core 144 r2533 c8a773e
Encoding settings : cabac=1 / ref=4 / deblock=1:0:0 / analyse=0x3:0x113 / me=umh / subme=8 / psy=1 / psy_rd=1.00:0.00 / mixed_ref=1 / me_range=24 / chroma_me=1 / trellis=1 / 8x8dct=1 / cqm=0 / deadzone=21,11 / fast_pskip=1 / chroma_qp_offset=-2 / threads=3 / lookahead_threads=1 / sliced_threads=0 / nr=0 / decimate=1 / interlaced=0 / bluray_compat=0 / constrained_intra=0 / bframes=3 / b_pyramid=0 / b_adapt=2 / b_bias=0 / direct=3 / weightb=1 / open_gop=0 / weightp=2 / keyint=250 / keyint_min=25 / scenecut=40 / intra_refresh=0 / rc_lookahead=40 / rc=abr / mbtree=1 / bitrate=1600 / ratetol=1.0 / qcomp=0.60 / qpmin=10 / qpmax=51 / qpstep=4 / ip_ratio=1.41 / aq=1:1.00
Language : English
Default : Yes
Forced : No

Audio #1
ID : 2
Format : AC-3
Format/Info : Audio Coding 3
Mode extension : CM (complete main)
Format settings, Endianness : Big
Codec ID : A_AC3
Duration : 1 h 32 min
Bit rate mode : Constant
Bit rate : 192 kb/s
Channel(s) : 2 channels
Channel positions : Front: L R
Sampling rate : 48.0 kHz
Frame rate : 31.250 FPS (1536 spf)
Bit depth : 16 bits
Compression mode : Lossy
Delay relative to video : -42 ms
Stream size : 127 MiB (7%)
Language : English
Default : Yes
Forced : No

Audio #2
ID : 3
Format : AC-3
Format/Info : Audio Coding 3
Mode extension : CM (complete main)
Format settings, Endianness : Big
Codec ID : A_AC3
Duration : 1 h 32 min
Bit rate mode : Constant
Bit rate : 192 kb/s
Channel(s) : 2 channels
Channel positions : Front: L R
Sampling rate : 48.0 kHz
Frame rate : 31.250 FPS (1536 spf)
Bit depth : 16 bits
Compression mode : Lossy
Delay relative to video : -42 ms
Stream size : 127 MiB (7%)
Language : English
Default : No
Forced : No

Audio #3
ID : 4
Format : AC-3
Format/Info : Audio Coding 3
Mode extension : CM (complete main)
Format settings, Endianness : Big
Codec ID : A_AC3
Duration : 1 h 32 min
Bit rate mode : Constant
Bit rate : 192 kb/s
Channel(s) : 2 channels
Channel positions : Front: L R
Sampling rate : 48.0 kHz
Frame rate : 31.250 FPS (1536 spf)
Bit depth : 16 bits
Compression mode : Lossy
Delay relative to video : -42 ms
Stream size : 127 MiB (7%)
Language : French
Default : No
Forced : No

Audio #4
ID : 5
Format : AC-3
Format/Info : Audio Coding 3
Mode extension : CM (complete main)
Format settings, Endianness : Big
Codec ID : A_AC3
Duration : 1 h 32 min
Bit rate mode : Constant
Bit rate : 192 kb/s
Channel(s) : 2 channels
Channel positions : Front: L R
Sampling rate : 48.0 kHz
Frame rate : 31.250 FPS (1536 spf)
Bit depth : 16 bits
Compression mode : Lossy
Delay relative to video : -42 ms
Stream size : 127 MiB (7%)
Language : Spanish
Default : No
Forced : No

Audio #5
ID : 6
Format : AC-3
Format/Info : Audio Coding 3
Mode extension : CM (complete main)
Format settings, Endianness : Big
Codec ID : A_AC3
Duration : 1 h 32 min
Bit rate mode : Constant
Bit rate : 192 kb/s
Channel(s) : 2 channels
Channel positions : Front: L R
Sampling rate : 48.0 kHz
Frame rate : 31.250 FPS (1536 spf)
Bit depth : 16 bits
Compression mode : Lossy
Delay relative to video : -42 ms
Stream size : 127 MiB (7%)
Language : Russian
Default : No
Forced : No

Text #1
ID : 7
Format : VobSub
Muxing mode : zlib
Codec ID : S_VOBSUB
Codec ID/Info : Picture based subtitle format used on DVDs
Language : English
Default : Yes
Forced : No

Text #2
ID : 8
Format : VobSub
Muxing mode : zlib
Codec ID : S_VOBSUB
Codec ID/Info : Picture based subtitle format used on DVDs
Language : Spanish
Default : No
Forced : No

Text #3
ID : 9
Format : VobSub
Muxing mode : zlib
Codec ID : S_VOBSUB
Codec ID/Info : Picture based subtitle format used on DVDs
Language : French
Default : No
Forced : No

Text #4
ID : 10
Format : VobSub
Muxing mode : zlib
Codec ID : S_VOBSUB
Codec ID/Info : Picture based subtitle format used on DVDs
Language : Spanish
Default : No
Forced : No

Menu
00:00:00.000 : en:Chapter 01
00:01:28.788 : en:Chapter 02
00:06:11.204 : en:Chapter 03
00:11:39.699 : en:Chapter 04
00:16:44.837 : en:Chapter 05
00:18:43.489 : en:Chapter 06
00:23:52.597 : en:Chapter 07
00:28:35.213 : en:Chapter 08
00:32:56.674 : en:Chapter 09
00:37:39.790 : en:Chapter 10
00:40:16.914 : en:Chapter 11
00:45:34.765 : en:Chapter 12
00:48:33.610 : en:Chapter 13
00:50:31.528 : en:Chapter 14
00:52:52.836 : en:Chapter 15
00:55:39.502 : en:Chapter 16
01:00:22.585 : en:Chapter 17
01:01:57.296 : en:Chapter 18
01:04:21.524 : en:Chapter 19
01:05:55.785 : en:Chapter 20
01:08:26.268 : en:Chapter 21
01:13:41.583 : en:Chapter 22
01:18:17.826 : en:Chapter 23
01:21:32.721 : en:Chapter 24
01:23:59.034 : en:Chapter 25
01:26:08.630 : en:Chapter 26
01:28:38.446 : en:Chapter 27
01:31:06.961 : en:Chapter 28




О фильме: Экранизация романа Эллиотта Арнольда. Аризона, 1870 год. Вот уже больше 10 лет длится война с индейцами на этой территории. Том Джеффордс (Джеймс Стюарт), бывший золотоискатель, бывший солдат, спасает от смерти молодого индейца по имени Чирикахуа, чем заслуживает благодарность его племени и вождя Кочиса, которому впервые удалось объединить под своим началом все племена апачей. Джеффордс - единственный бледнолицый, выживший при резне (напав на лагерь, индейцы привязали его к дереву). Когда он возвращается в город, людей удивляет странная снисходительность, проявленная к нему индейцами. Джеффордсу отвратительна бесконечная борьба между расами, и он решает узнать все об индейцах. Один индеец, живущий среди белых, учит Джеффордса языку, нравам, обычаям, истории апачей. Затем Джеффордс в одиночку идет на их территорию, находит Кочиса и просит разрешение открыть дорогу для почтовых курьеров. Его просьба удовлетворена. Он влюбляется в молодую индеанку по имени Сонсиахрай (Утренняя звезда). Почта не раз проходит туда и обратно через индейскую территорию, не встречая преград. Но когда в индейские земли вступает караван с солдатами, спрятанными в повозках, индейцы атакуют и истребляют его. Белые собираются повесить Джеффордса как шпиона, но им не дает этого сделать генерал, уцелевший при атаке…

Русское озвучивание: Профессиональное двухголосое



Screenshots (click to enlarge to original size):

Broken Arrow / Сломанная стрела (1950)

Broken Arrow / Сломанная стрела (1950)

Broken Arrow / Сломанная стрела (1950)


Broken Arrow / Сломанная стрела (1950)




–––––––––––––––––––––––––––––––––––––––-
>>> Other "Western" <<< OR >>> "Drama" <<<
–––––––––––––––––––––––––––––––––––––––-
>>> Visit Blog RSU75 Here <<<
–––––––––––––––––––––––––––––––––––––––-