Tags
Language
Tags

Brooklyn (2015)

Posted By: Tavaz
1080p (FullHD) / BDRip IMDb
Brooklyn (2015)

Brooklyn (2015)
BDRip | MKV | 1920x1080 | English | H264 @ 5760 kbps | AC-3 @ 448 kbps | 1 h 51 min | 4.83 GiB
Subtitles: English
Genre: Drama, Romance

In 1950s Ireland and New York, young Ellis Lacey has to choose between two men and two countries.

9c50d98c174a431c8efabc1feb5b8d2e.mkv (4.8 GB)



General
Complete name : ./9c50d98c174a431c8efabc1feb5b8d2e.mkv
Format : Matroska
Format version : Version 4 / Version 2
File size : 4.83 GiB
Duration : 1 h 51 min
Overall bit rate : 6 202 kb/s
Encoded date : UTC 2019-03-30 22:15:00 / UTC 2019-03-30T03:44:14Z
Writing application : mkvmerge v31.0.0 ('Dolores In A Shoestand') 64-bit
Writing library : libebml v1.3.6 + libmatroska v1.4.9 / Lavf57.7.2

Video
ID : 1
Format : AVC
Format/Info : Advanced Video Codec
Format profile : High@L4
Format settings : CABAC / 4 Ref Frames
Format settings, CABAC : Yes
Format settings, RefFrames : 4 frames
Codec ID : V_MPEG4/ISO/AVC
Duration : 1 h 51 min
Bit rate : 5 760 kb/s
Width : 1 920 pixels
Height : 1 080 pixels
Display aspect ratio : 16:9
Frame rate mode : Constant
Frame rate : 23.976 (24000/1001) FPS
Color space : YUV
Chroma subsampling : 4:2:0
Bit depth : 8 bits
Scan type : Progressive
Bits/(Pixel*Frame) : 0.116
Stream size : 4.38 GiB (91%)
Writing library : x264 core 155 r2901 7d0ff22
Encoding settings : cabac=1 / ref=4 / deblock=1:-3:-3 / analyse=0x3:0x133 / me=umh / subme=9 / psy=1 / psy_rd=1.10:0.25 / mixed_ref=1 / me_range=32 / chroma_me=1 / trellis=2 / 8x8dct=1 / cqm=0 / deadzone=6,6 / fast_pskip=1 / chroma_qp_offset=-4 / threads=24 / lookahead_threads=2 / sliced_threads=0 / nr=0 / decimate=1 / interlaced=0 / bluray_compat=0 / constrained_intra=0 / bframes=6 / b_pyramid=2 / b_adapt=2 / b_bias=0 / direct=3 / weightb=1 / open_gop=0 / weightp=2 / keyint=240 / keyint_min=24 / scenecut=40 / intra_refresh=0 / rc_lookahead=40 / rc=2pass / mbtree=1 / bitrate=5760 / ratetol=1.0 / qcomp=0.60 / qpmin=0 / qpmax=69 / qpstep=4 / cplxblur=20.0 / qblur=0.5 / vbv_maxrate=20000 / vbv_bufsize=25000 / nal_hrd=none / filler=0 / ip_ratio=1.40 / aq=1:1.00
Default : Yes
Forced : No
Color range : Limited
Color primaries : BT.709
Transfer characteristics : BT.709
Matrix coefficients : BT.709
Statistics Tags Issue : mkvmerge v31.0.0 ('Dolores In A Shoestand') 64-bit 2019-03-30 22:15:00 / mkvmerge v31.0.0 ('Dolores In A Shoestand') 64-bit 2019-03-30 22:15:00 / UTC 2019-03-30T03:44:14Z
FromStats_BitRate : 5752468
FromStats_Duration : 01:51:24.720000000
FromStats_FrameCount : 160273
FromStats_StreamSize : 4806705036

Audio
ID : 2
Format : AC-3
Format/Info : Audio Coding 3
Format settings, Endianness : Big
Codec ID : A_AC3
Duration : 1 h 51 min
Bit rate mode : Constant
Bit rate : 448 kb/s
Channel(s) : 6 channels
Channel positions : Front: L C R, Side: L R, LFE
Sampling rate : 48.0 kHz
Frame rate : 31.250 FPS (1536 SPF)
Bit depth : 16 bits
Compression mode : Lossy
Stream size : 357 MiB (7%)
Title : Surround
Language : English
Service kind : Complete Main
Default : Yes
Forced : No
Statistics Tags Issue : mkvmerge v31.0.0 ('Dolores In A Shoestand') 64-bit 2019-03-30 22:15:00 / mkvmerge v31.0.0 ('Dolores In A Shoestand') 64-bit 2019-03-30 22:15:00 / UTC 2019-03-30T03:44:14Z
FromStats_BitRate : 448000
FromStats_Duration : 01:51:24.704000000
FromStats_FrameCount : 208897
FromStats_StreamSize : 374343424

Text
ID : 3
Format : UTF-8
Codec ID : S_TEXT/UTF8
Codec ID/Info : UTF-8 Plain Text
Language : English
Default : Yes
Forced : No
Statistics Tags Issue : mkvmerge v31.0.0 ('Dolores In A Shoestand') 64-bit 2019-03-30 22:15:00 / mkvmerge v31.0.0 ('Dolores In A Shoestand') 64-bit 2019-03-30 22:15:00 / UTC 2019-03-30T03:44:14Z
FromStats_BitRate : 62
FromStats_Duration : 01:50:24.618000000
FromStats_FrameCount : 1694
FromStats_StreamSize : 51483





Brooklyn (2015)


Brooklyn (2015)


Brooklyn (2015)


Brooklyn (2015)


Brooklyn (2015)