Tags
Language
Tags

Bruce Lee: A Warrior's Journey (2000)

Posted By: Tutorial
SD / DVDRip IMDb
Bruce Lee: A Warrior's Journey (2000)

Bruce Lee: A Warrior's Journey (2000)
DVDRip | 704 x 512 | .AVI/XviD @ 1823 Kbps | 3x~31mn | 2.05 GB
Audio: English, German, Italian AC-3 384 Kbps, 6 channels | Subs: None
Genre: Documentary, Action, Biography

Bruce Lee's life, philosophy, and final film are examined in this reverent documentary, which traces the master's path through the development of his own style, his battles with mainstream Hollywood and martial arts traditionalists, and his emergence as the world's top box-office draw. Just as interesting as Lee's life is the chance to see lost footage from The Game of Death, Lee's final, unfinished film. Outtakes offer the opportunity to see Lee's perfectionism in action, and the reconstructed storyline reveals how Lee's personal martial arts philosophy shaped the film. And yes, there is a spectacular nunchakau fight. Interviews with Lee and those close to him highlight his energy, intelligence, and remarkable charisma. Fans of Lee will welcome this new insight into his filmmaking, and those unfamiliar with his life and work will come away with a new respect. The DVD includes a Lee filmography, the theatrical trailer for The Game of Death, and audio commentary by the director.

General
Complete name : Bruce.Lee.A.Warrior's.Journey.1of3.avi
Format : AVI
Format/Info : Audio Video Interleave
File size : 699 MiB
Duration : 30 min 38 s
Overall bit rate : 3 191 kb/s
Movie name : Bruce.Lee.A.Warrior's.Journey.1of3.Xvid.AC3.Multi.Audio.en.ge.it.www.mvgroup.org
Director : John Little
Genre : Documentary / Action
Subject : This is a touching and compelling portrait of the legendary martial artist, humanist, entertainer and philosopher, Bruce Lee.
Law rating : Unrated
Recorded date : 2000
Writing application : VirtualDubMod 1.5.10.2 (build 2542/release) VirtualDubMod build 2542/release
Original source form/Name : Home Video
segm : 

Video
ID : 0
Format : MPEG-4 Visual
Format profile : Advanced Simple@L5
Format settings, BVOP : No
Format settings, QPel : No
Format settings, GMC : No warppoints
Format settings, Matrix : Default (H.263)
Codec ID : XVID
Codec ID/Hint : XviD
Duration : 30 min 38 s
Bit rate : 1 823 kb/s
Width : 704 pixels
Height : 512 pixels
Display aspect ratio : 1.375
Frame rate : 25.000 FPS
Color space : YUV
Chroma subsampling : 4:2:0
Bit depth : 8 bits
Scan type : Interlaced
Scan order : Bottom Field First
Compression mode : Lossy
Bits/(Pixel*Frame) : 0.202
Stream size : 399 MiB (57%)
Writing library : XviD 1.1.0 (UTC 2005-11-22)

Audio #1
ID : 1
Format : AC-3
Format/Info : Audio Coding 3
Format settings, Endianness : Big
Codec ID : 2000
Duration : 30 min 38 s
Bit rate mode : Constant
Bit rate : 384 kb/s
Channel(s) : 6 channels
Channel positions : Front: L C R, Side: L R, LFE
Sampling rate : 48.0 kHz
Frame rate : 31.250 FPS (1536 spf)
Bit depth : 16 bits
Compression mode : Lossy
Stream size : 84.1 MiB (12%)
Alignment : Split accross interleaves
Interleave, duration : 40 ms (1.00 video frame)
Interleave, preload duration : 500 ms
Language : Undefined
Service kind : Complete Main

Audio #2
ID : 2
Format : AC-3
Format/Info : Audio Coding 3
Format settings, Endianness : Big
Codec ID : 2000
Duration : 30 min 38 s
Bit rate mode : Constant
Bit rate : 384 kb/s
Channel(s) : 6 channels
Channel positions : Front: L C R, Side: L R, LFE
Sampling rate : 48.0 kHz
Frame rate : 31.250 FPS (1536 spf)
Bit depth : 16 bits
Compression mode : Lossy
Stream size : 84.1 MiB (12%)
Alignment : Split accross interleaves
Interleave, duration : 40 ms (1.00 video frame)
Interleave, preload duration : 500 ms
Service kind : Complete Main

Audio #3
ID : 3
Format : AC-3
Format/Info : Audio Coding 3
Format settings, Endianness : Big
Codec ID : 2000
Duration : 30 min 38 s
Bit rate mode : Constant
Bit rate : 384 kb/s
Channel(s) : 6 channels
Channel positions : Front: L C R, Side: L R, LFE
Sampling rate : 48.0 kHz
Frame rate : 31.250 FPS (1536 spf)
Bit depth : 16 bits
Compression mode : Lossy
Stream size : 84.1 MiB (12%)
Alignment : Split accross interleaves
Interleave, duration : 40 ms (1.00 video frame)
Interleave, preload duration : 500 ms
Service kind : Complete Main

Audio #4
ID : 4
Format : AC-3
Format/Info : Audio Coding 3
Mode : Dolby Digital
Format settings, Endianness : Big
Codec ID : 2000
Duration : 30 min 38 s
Bit rate mode : Constant
Bit rate : 192 kb/s
Channel(s) : 2 channels
Channel positions : Front: L R
Sampling rate : 48.0 kHz
Frame rate : 31.250 FPS (1536 spf)
Bit depth : 16 bits
Compression mode : Lossy
Stream size : 42.1 MiB (6%)
Alignment : Split accross interleaves
Interleave, duration : 40 ms (1.00 video frame)
Interleave, preload duration : 500 ms
Service kind : Complete Main
Screenshots

Bruce Lee: A Warrior's Journey (2000)

Bruce Lee: A Warrior's Journey (2000)

Bruce Lee: A Warrior's Journey (2000)

Welcome to my blog - daily update!

Bruce Lee: A Warrior's Journey (2000)