Subcategories

Buena Vista Social Club (1999)

Posted By: Tutorial
Buena Vista Social Club (1999)

Buena Vista Social Club (1999)
720p BluRay | 1280 x 720 | .MKV/AVC @ 7400 Kbps | 1 h 45 mn | 6.56 GB
Audio: Spanish DTS 1509 Kbps, 6 channels | Subs: English
Genre: Documentary, Music

Aging Cuban musicians whose talents had been virtually forgotten following Castro's takeover of Cuba, are brought out of retirement by Ry Cooder, who travelled to Havana in order to bring the musicians together, resulting in triumphant performances of extraordinary music, and resurrecting the musicians' careers.
Director: Wim Wenders
Writers: Wim Wenders (by), Nick Gold (original concept)
Stars: Compay Segundo, Ibrahim Ferrer, Rubén González

More info: IMDB

also You can look my other last: Music-posts

General
Unique ID : 218996611917836986101796028340985310378 (0xA4C13698491214379C6B7F570A46ACAA)
Complete name : Buena.Vista.Social.Club.1999.mkv
Format : Matroska
Format version : Version 2
File size : 6.56 GiB
Duration : 1 h 45 min
Overall bit rate : 8 912 kb/s
Encoded date : UTC 2017-05-16 12:18:59
Writing application : mkvmerge v10.0.0 ('To Drown In You') 64bit
Writing library : libebml v1.3.4 + libmatroska v1.4.5

Video
ID : 1
Format : AVC
Format/Info : Advanced Video Codec
Format profile : High@L4.1
Format settings, CABAC : Yes
Format settings, ReFrames : 5 frames
Codec ID : V_MPEG4/ISO/AVC
Duration : 1 h 45 min
Bit rate : 7 400 kb/s
Width : 1 280 pixels
Height : 720 pixels
Display aspect ratio : 16:9
Frame rate mode : Constant
Frame rate : 23.976 (24000/1001) FPS
Color space : YUV
Chroma subsampling : 4:2:0
Bit depth : 8 bits
Scan type : Progressive
Bits/(Pixel*Frame) : 0.335
Stream size : 5.45 GiB (83%)
Writing library : x264 core 148 r2762 90a61ec
Encoding settings : cabac=1 / ref=5 / deblock=1:-3:-3 / analyse=0x3:0x113 / me=umh / subme=8 / psy=1 / psy_rd=1.00:0.00 / mixed_ref=1 / me_range=16 / chroma_me=1 / trellis=1 / 8x8dct=1 / cqm=0 / deadzone=21,11 / fast_pskip=1 / chroma_qp_offset=-2 / threads=12 / lookahead_threads=2 / sliced_threads=0 / nr=0 / decimate=1 / interlaced=0 / bluray_compat=0 / constrained_intra=0 / bframes=3 / b_pyramid=2 / b_adapt=2 / b_bias=0 / direct=3 / weightb=1 / open_gop=0 / weightp=2 / keyint=240 / keyint_min=24 / scenecut=40 / intra_refresh=0 / rc_lookahead=50 / rc=2pass / mbtree=1 / bitrate=7400 / ratetol=1.0 / qcomp=0.60 / qpmin=0 / qpmax=69 / qpstep=4 / cplxblur=20.0 / qblur=0.5 / vbv_maxrate=62500 / vbv_bufsize=78125 / nal_hrd=none / filler=0 / ip_ratio=1.40 / aq=1:1.00
Language : English
Default : Yes
Forced : No

Audio
ID : 2
Format : DTS
Format/Info : Digital Theater Systems
Mode : 16
Format settings, Endianness : Big
Codec ID : A_DTS
Duration : 1 h 45 min
Bit rate mode : Constant
Bit rate : 1 509 kb/s
Channel(s) : 6 channels
Channel positions : Front: L C R, Side: L R, LFE
Sampling rate : 48.0 kHz
Frame rate : 93.750 FPS (512 spf)
Bit depth : 24 bits
Compression mode : Lossy
Stream size : 1.11 GiB (17%)
Language : Spanish
Default : Yes
Forced : No

Text #1
ID : 3
Format : UTF-8
Codec ID : S_TEXT/UTF8
Codec ID/Info : UTF-8 Plain Text
Duration : 1 h 39 min
Bit rate : 32 b/s
Count of elements : 687
Stream size : 23.6 KiB (0%)
Title : English
Language : English
Default : Yes
Forced : Yes

Text #2
ID : 4
Format : UTF-8
Codec ID : S_TEXT/UTF8
Codec ID/Info : UTF-8 Plain Text
Duration : 1 h 44 min
Bit rate : 48 b/s
Count of elements : 998
Stream size : 37.1 KiB (0%)
Title : English SDH
Language : English
Default : No
Forced : No

Text #3
ID : 5
Format : UTF-8
Codec ID : S_TEXT/UTF8
Codec ID/Info : UTF-8 Plain Text
Duration : 1 h 43 min
Bit rate : 45 b/s
Count of elements : 926
Stream size : 34.8 KiB (0%)
Title : English Stripped
Language : English
Default : No
Forced : No

Menu
00:00:00.000 : en:00:00:00.000
00:10:00.016 : en:00:10:00.016
00:15:59.000 : en:00:15:59.000
00:21:12.897 : en:00:21:12.897
00:23:44.757 : en:00:23:44.757
00:28:30.459 : en:00:28:30.459
00:32:31.658 : en:00:32:31.658
00:36:18.968 : en:00:36:18.968
00:41:13.680 : en:00:41:13.680
00:47:54.371 : en:00:47:54.371
00:53:09.520 : en:00:53:09.520
00:57:06.298 : en:00:57:06.298
01:02:26.952 : en:01:02:26.952
01:05:35.140 : en:01:05:35.140
01:10:44.240 : en:01:10:44.240
01:15:17.179 : en:01:15:17.179
01:18:23.324 : en:01:18:23.324
01:21:13.077 : en:01:21:13.077
01:27:45.510 : en:01:27:45.510
01:33:52.544 : en:01:33:52.544
Screenshots

Buena Vista Social Club (1999)

Buena Vista Social Club (1999)

Buena Vista Social Club (1999)

Welcome to my blog - daily update!

Buena Vista Social Club (1999)