Bugs Bunny's 3rd Movie: 1001 Rabbit Tales (1982)

Posted By: Tavaz
1080p (FullHD) / WEB-DL IMDb
Bugs Bunny's 3rd Movie: 1001 Rabbit Tales (1982)

Bugs Bunny's 3rd Movie: 1001 Rabbit Tales (1982)
WEB-DL | MKV | 1920x1080 | English | H265 @ 8818 kbps | E-AC-3 @ 224 kbps | 1 h 13 min | 4.66 GiB
Subtitles: English
Genre: Animation, Comedy, Family

If Bugs Bunny were to direct his signature inquiry–"What's up, doc?"–toward the modern-day Warner Bros. creative team, he wouldn't be far off. For 1001 Rabbit Tales, they've doctored up a batch of classic cartoons featuring the carrot muncher and his bumbling comrades and bundled them, near seamlessly, into a feature-length film. Here's the premise: Bugs and Daffy, both book salesmen, are competing to sell the most copies of a kids' book. Instead of burrowing a beeline to his sales territory (he should have made a left at Albuquerque), Bugs ends up in the castle of Yosemite Sam, here a harem-leading honcho. Sam's pain-in-the-spurs son, Prince Abalaba, needs somebody to read him stories; Bugs, who'd sooner take the job than suffer the alternative, that involving being boiled in oil, signs on.

3c7f0a441df646fc9daf3631de4c2b56.mkv (4.7 GB)



General
Unique ID : 264919885004547929154964154615646352229 (0xC74DB6C4BB539B5AB7E5158B35EF7365)
Complete name : ./3c7f0a441df646fc9daf3631de4c2b56.mkv
Format : Matroska
Format version : Version 4 / Version 2
File size : 4.66 GiB
Duration : 1 h 13 min
Overall bit rate : 9 045 kb/s
Encoded date : UTC 2018-04-15 22:51:08
Writing application : mkvmerge v19.0.0 ('Brave Captain') 64-bit
Writing library : libebml v1.3.5 + libmatroska v1.4.8

Video
ID : 1
Format : HEVC
Format/Info : High Efficiency Video Coding
Format profile : Main@L4@Main
Codec ID : V_MPEGH/ISO/HEVC
Duration : 1 h 13 min
Bit rate : 8 819 kb/s
Width : 1 920 pixels
Height : 1 080 pixels
Display aspect ratio : 16:9
Frame rate mode : Constant
Frame rate : 23.976 (24000/1001) FPS
Standard : NTSC
Color space : YUV
Chroma subsampling : 4:2:0
Bit depth : 8 bits
Bits/(Pixel*Frame) : 0.177
Stream size : 4.54 GiB (98%)
Default : Yes
Forced : No
Color range : Limited
Color primaries : BT.709
Transfer characteristics : BT.709
Matrix coefficients : BT.709

Audio
ID : 2
Format : E-AC-3
Format/Info : Enhanced Audio Coding 3
Format settings, Endianness : Big
Codec ID : A_EAC3
Duration : 1 h 13 min
Bit rate mode : Constant
Bit rate : 224 kb/s
Channel(s) : 2 channels
Channel positions : Front: L R
Sampling rate : 48.0 kHz
Frame rate : 187.500 FPS (256 SPF)
Compression mode : Lossy
Stream size : 118 MiB (2%)
Language : English
Service kind : Complete Main
Default : Yes
Forced : No

Text
ID : 3
Format : UTF-8
Codec ID : S_TEXT/UTF8
Codec ID/Info : UTF-8 Plain Text
Duration : 1 h 11 min
Bit rate : 57 b/s
Count of elements : 1185
Stream size : 30.1 KiB (0%)
Language : English
Default : No
Forced : No





Bugs Bunny's 3rd Movie: 1001 Rabbit Tales (1982)


Bugs Bunny's 3rd Movie: 1001 Rabbit Tales (1982)


Bugs Bunny's 3rd Movie: 1001 Rabbit Tales (1982)


Bugs Bunny's 3rd Movie: 1001 Rabbit Tales (1982)


Bugs Bunny's 3rd Movie: 1001 Rabbit Tales (1982)