Tags
Language
Tags

Do-re-mi-fa musume no chi wa sawagu / Bumpkin Soup (1985)

Posted By: Nedulow
1080p (FullHD) / WEB-DL IMDb
Do-re-mi-fa musume no chi wa sawagu / Bumpkin Soup (1985)

Do-re-mi-fa musume no chi wa sawagu / Bumpkin Soup (1985)
WEB-DL 720p | MKV / AVC@2872 kb/s | 1280x720 | 1h 22mn
日本語: AC3, 224 kb/s (2 ch) | Subtitles: English | 1.78 GB
WEB-DL 1080p | MKV / AVC@14.3 Mb/s | 1920x1040 | 1h 22mn
日本語: AC3, 224 kb/s (2 ch) | Subtitles: English | 8.57 GB
Genre: Comedy, Erotic, Musical

A country girl visits Tokyo in search of her college heartthrob. Here she meets horny students, a psychology professor in search of the theory of shame, and Yoshioka who has become a campus nobody.


General
Unique ID : 244986348579956155822386299581223084119 (0xB84EA78B5239B1D3B69A406E5DA72057)
Complete name : C:\Bumpkin.Soup.1985.WEB-DL.720p.mkv
Format : Matroska
Format version : Version 2
File size : 1.78 GiB
Duration : 1 h 22 min
Overall bit rate : 3 087 kb/s
Encoded date : UTC 2021-12-02 08:09:11
Writing application : mkvmerge v7.8.0 ('River Man') 32bit built on Apr 3 2015 12:11:22
Writing library : libebml v1.3.1 + libmatroska v1.4.2

Video
ID : 1
Format : AVC
Format/Info : Advanced Video Codec
Format profile : Main@L3.1
Format settings : CABAC / 4 Ref Frames
Format settings, CABAC : Yes
Format settings, Reference : 4 frames
Codec ID : V_MPEG4/ISO/AVC
Duration : 1 h 22 min
Bit rate : 2 872 kb/s
Width : 1 280 pixels
Height : 720 pixels
Display aspect ratio : 16:9
Frame rate mode : Constant
Frame rate : 29.970 (30000/1001) FPS
Color space : YUV
Chroma subsampling : 4:2:0
Bit depth : 8 bits
Scan type : Progressive
Bits/(Pixel*Frame) : 0.104
Stream size : 1.62 GiB (91%)
Writing library : x264 core 144
Encoding settings : cabac=1 / ref=4 / deblock=1:-1:-1 / analyse=0x1:0x1 / me=dia / subme=1 / psy=1 / psy_rd=1.00:0.00 / mixed_ref=0 / me_range=16 / chroma_me=1 / trellis=0 / 8x8dct=0 / cqm=0 / deadzone=21,11 / fast_pskip=1 / chroma_qp_offset=1 / threads=36 / lookahead_threads=5 / sliced_threads=0 / nr=0 / decimate=1 / interlaced=0 / bluray_compat=0 / constrained_intra=0 / bframes=3 / b_pyramid=2 / b_adapt=1 / b_bias=0 / direct=1 / weightb=1 / open_gop=0 / weightp=1 / keyint=300 / keyint_min=1 / scenecut=0 / intra_refresh=0 / rc_lookahead=0 / rc=abr / mbtree=0 / bitrate=2872 / ratetol=1.0 / qcomp=0.60 / qpmin=0 / qpmax=69 / qpstep=4 / vbv_maxrate=5744 / vbv_bufsize=11488 / nal_hrd=none / filler=0 / ip_ratio=1.40 / pb_ratio=1.30 / aq=1:1.00
Default : No
Forced : No

Audio
ID : 2
Format : AC-3
Format/Info : Audio Coding 3
Commercial name : Dolby Digital
Codec ID : A_AC3
Duration : 1 h 22 min
Bit rate mode : Constant
Bit rate : 224 kb/s
Channel(s) : 2 channels
Channel layout : L R
Sampling rate : 48.0 kHz
Frame rate : 31.250 FPS (1536 SPF)
Bit depth : 16 bits
Compression mode : Lossy
Delay relative to video : -23 ms
Stream size : 132 MiB (7%)
Language : Japanese
Service kind : Complete Main
Default : No
Forced : No

Text
ID : 3
Format : UTF-8
Codec ID : S_TEXT/UTF8
Codec ID/Info : UTF-8 Plain Text
Language : English
Default : No
Forced : No






General
Unique ID : 189711328083891939007838180953677398430 (0x8EB912A00C0A22D8968D235AAD0C819E)
Complete name : C:\Bumpkin.Soup.1985.WEB-DL.1080p.mkv
Format : Matroska
Format version : Version 2
File size : 8.57 GiB
Duration : 1 h 22 min
Overall bit rate : 14.8 Mb/s
Encoded date : UTC 2021-12-02 08:08:05
Writing application : mkvmerge v7.8.0 ('River Man') 32bit built on Apr 3 2015 12:11:22
Writing library : libebml v1.3.1 + libmatroska v1.4.2

Video
ID : 1
Format : AVC
Format/Info : Advanced Video Codec
Format profile : High@L4
Format settings : CABAC / 4 Ref Frames
Format settings, CABAC : Yes
Format settings, Reference : 4 frames
Codec ID : V_MPEG4/ISO/AVC
Duration : 1 h 22 min
Bit rate : 14.3 Mb/s
Width : 1 920 pixels
Height : 1 040 pixels
Display aspect ratio : 1.85:1
Frame rate mode : Constant
Frame rate : 23.976 (24000/1001) FPS
Color space : YUV
Chroma subsampling : 4:2:0
Bit depth : 8 bits
Scan type : Progressive
Bits/(Pixel*Frame) : 0.299
Stream size : 8.27 GiB (97%)
Default : Yes
Forced : No
Color range : Limited
Color primaries : BT.709
Transfer characteristics : BT.709
Matrix coefficients : BT.709

Audio
ID : 2
Format : AC-3
Format/Info : Audio Coding 3
Commercial name : Dolby Digital
Codec ID : A_AC3
Duration : 1 h 22 min
Bit rate mode : Constant
Bit rate : 224 kb/s
Channel(s) : 2 channels
Channel layout : L R
Sampling rate : 48.0 kHz
Frame rate : 31.250 FPS (1536 SPF)
Bit depth : 16 bits
Compression mode : Lossy
Stream size : 132 MiB (2%)
Language : Japanese
Service kind : Complete Main
Default : No
Forced : No

Text
ID : 3
Format : UTF-8
Codec ID : S_TEXT/UTF8
Codec ID/Info : UTF-8 Plain Text
Language : English
Default : No
Forced : No





Screenshots WEB-DL 720p

Do-re-mi-fa musume no chi wa sawagu / Bumpkin Soup (1985)

Do-re-mi-fa musume no chi wa sawagu / Bumpkin Soup (1985)

Do-re-mi-fa musume no chi wa sawagu / Bumpkin Soup (1985)


Screenshots WEB-DL 1080p

Do-re-mi-fa musume no chi wa sawagu / Bumpkin Soup (1985)

Do-re-mi-fa musume no chi wa sawagu / Bumpkin Soup (1985)

Do-re-mi-fa musume no chi wa sawagu / Bumpkin Soup (1985)