Mad Films - Butterfly Effect: Series 3 (2018)

Posted By: notbanned
1080p (FullHD) / HDTV
Mad Films - Butterfly Effect: Series 3 (2018)

Mad Films - Butterfly Effect: Series 3 (2018)
HDTV | 1920x1080 | .MP4/AVC @ 4200 Kbps | 13x~26min | 10.3 GiB
Audio: English AAC 160 kbps, 2 channels | Subs: English
Genre: Documentary

Crossroads in our History where the world swings one way or the other. With spectacular reconstitutions created by 3D modeling specialists.

Part 1: Kursk: The USSR Strikes Back
In the spring of 1943, after the successive failures of Moscow and Stalingrad, the armies of the Reich go on the offensive again. Considered the greatest tank battle in History, this event represents a real turning point of World War II on the Eastern Front.

Part 2: Vikings: Assault on the Frankish Empire
While the Viking raids have come one after another in the Occident for almost a century, in November 885, hundreds of Scandinavian boats sailing towards Burgundy present themselves before the walls of Paris and besiege the city.

Part 3: Deepwater: An Ocean of Oil
Rented by the BP oil company to drill an oil well in the Gulf of Mexico, the Deepwater Horizon drilling rig explodes on April 20, 2010, before sinking into the ocean and causing a gigantic oil spill. At issue: negligence in the maintenance and in the tests carried out.

Part 4: Cook in Pursuit of the Southern Lands
In 1415, the Portuguese launch an era of explorations that will lead to the European discovery of the world. The competition is intense between France and the United Kingdom for the possession of North America and the West Indies for the Indian colonies, but also for Science.

Part 5: Champollion: Unravelling the Mysteries of the Stone
In July 1799, during the French Campaign in Egypt and Syria, the French soldiers of lieutenant Bouchard discover by chance at Rosetta a large black stone. It is, in fact, the fragment of a stele engraved in honor of King Ptolemy V, including three writing systems: Greek, Demotic, and hieroglyphs.

Part 6: Gandhi: The Force of Willpower
In May 1893, a man is thrown out of a train, on the platforms of the train station of Pietermaritzburg, a little city of South Africa, for daring to sit in a first-class compartment. This young Indian lawyer is named Mohandas Karamchand Gandhi.

Part 7: Lawrence of Arabia: For a Fistful of Sand
1916, the Great War, far away from the trenches, in the sand of the Middle East, war has a very different face. With a handful of intrepid men, Thomas Edward Lawrence leads the revolt of the Arabs alongside Sharif Hussein, against the Ottoman Empire.

Part 8: Apartheid: The Spiral of Fear
August 5, 1962, South Africa. After several months on the run, the Black leader Nelson Mandela is arrested by the South African police and incarcerated in Robben Island, a fortress-like jail off Cape Town. He doesn’t know it at that time, but it is only the beginning of his penitential ordeal.

Part 9: Augustus: Emperor of the Republic
At the end of a succession of civil wars which have weakened the Roman Republic, Caesar proclaims himself dictator for life. However, on March 14, 44 BC, he is assassinated by conspirators in the name of the Republic.

Part 10: Carthage: Romes Rival
In 814 BC, the exiled Phoenician queen Dido founds the city of Carthage on the African Coast. The city develops and takes the lead of a maritime empire based on trade. Carthage dominates the Western Mediterranean. But in the third century BC, she finds herself opposed to the Roman Republic.

Part 11: Miners: Fodder of the Industrial Revolution
University of Glasgow, England, 1763. A young engineer tries, in vain, to fix a steam engine before finally understanding what is wrong with it. James Watt still doesn’t know it but he will soon revolutionize the world of industry.

Part 12: Encyclopedia: Dare to Know
July 31, 1784, Paris. Denis Diderot has just passed away and with him, the memory of the biggest editorial epic of the Age of Enlightenment: Encyclopedia, or a Systematic Dictionary of the Sciences, Arts, and Crafts.

Part 13: Dien Bien Phu: a Losing Battle
Since the end of the 19th century, Indochina has been a flourishing colony, the gem of the French Empire. However, the Second World War turns everything upside down. At the end of the war, the Viet Minh movement announces its independence.

General
Complete name : Butterfly.Effect.Series.3.01of13.Kursk.The.USSR.Strikes.Back.1080p.mp4
Format : MPEG-4
Format profile : Base Media
Codec ID : isom (isom)
File size : 813 MiB
Duration : 26 min 0 s
Overall bit rate mode : Variable
Overall bit rate : 4 372 kb/s

Video
ID : 1
Format : AVC
Format/Info : Advanced Video Codec
Format profile : High@L4.1
Format settings, CABAC : Yes
Format settings, ReFrames : 4 frames
Codec ID : avc1
Codec ID/Info : Advanced Video Coding
Duration : 26 min 0 s
Bit rate : 4 200 kb/s
Maximum bit rate : 18.4 Mb/s
Width : 1 920 pixels
Height : 1 080 pixels
Display aspect ratio : 16:9
Frame rate mode : Constant
Frame rate : 29.970 (30000/1001) FPS
Color space : YUV
Chroma subsampling : 4:2:0
Bit depth : 8 bits
Scan type : Progressive
Bits/(Pixel*Frame) : 0.068
Stream size : 783 MiB (96%)
Writing library : x264 core 130 r2273 b3065e6
Encoding settings : cabac=1 / ref=1 / deblock=1:0:0 / analyse=0x3:0x113 / me=hex / subme=2 / psy=1 / psy_rd=1.00:0.00 / mixed_ref=0 / me_range=16 / chroma_me=1 / trellis=0 / 8x8dct=1 / cqm=0 / deadzone=21,11 / fast_pskip=1 / chroma_qp_offset=0 / threads=6 / lookahead_threads=2 / sliced_threads=0 / nr=0 / decimate=1 / interlaced=0 / bluray_compat=0 / constrained_intra=0 / bframes=3 / b_pyramid=2 / b_adapt=1 / b_bias=0 / direct=1 / weightb=1 / open_gop=0 / weightp=1 / keyint=300 / keyint_min=30 / scenecut=40 / intra_refresh=0 / rc_lookahead=10 / rc=abr / mbtree=1 / bitrate=4200 / ratetol=1.0 / qcomp=0.60 / qpmin=0 / qpmax=69 / qpstep=4 / vbv_maxrate=62500 / vbv_bufsize=78125 / nal_hrd=none / ip_ratio=1.40 / aq=1:1.00
Encoded date : UTC 2019-04-28 13:49:30
Tagged date : UTC 2019-04-29 09:16:29
Color range : Limited
Color primaries : BT.709
Transfer characteristics : BT.709
Matrix coefficients : BT.709

Audio
ID : 2
Format : AAC
Format/Info : Advanced Audio Codec
Format profile : LC
Codec ID : 40
Duration : 26 min 0 s
Bit rate mode : Variable
Bit rate : 160 kb/s
Maximum bit rate : 183 kb/s
Channel(s) : 2 channels
Channel positions : Front: L R
Sampling rate : 48.0 kHz
Frame rate : 46.875 FPS (1024 spf)
Compression mode : Lossy
Stream size : 29.8 MiB (4%)
Language : English
Encoded date : UTC 2019-04-29 09:16:27
Tagged date : UTC 2019-04-29 09:16:29

Text
ID : 3
Format : Timed Text
Codec ID : tx3g
Duration : 25 min 15 s
Bit rate mode : Variable
Bit rate : 96 b/s
Stream size : 17.8 KiB (0%)
Forced : No
Encoded date : UTC 2019-04-29 09:16:29
Tagged date : UTC 2019-04-29 09:16:29


Screenshots:

Mad Films - Butterfly Effect: Series 3 (2018)

Mad Films - Butterfly Effect: Series 3 (2018)

Mad Films - Butterfly Effect: Series 3 (2018)

Mad Films - Butterfly Effect: Series 3 (2018)