CBC - Reel Injun (2009)

Posted By: Polik88
CBC - Reel Injun (2009)

CBC - Reel Injun (2009)
DVDRip | English | AVI/XVID 23.976 fps 1477 Kbps | 720x416 | MP3 128 Kbps 48.0 khz | 1h 4mn | 748 MB
Genre: Documentary

The history of the depiction of Native Americans in Hollywood films. A documentary about the evolution of the depiction of First Nations people in film, from the silent era to today. Featuring clips from hundreds of films, candid interviews with famous Native and non-Native directors, writers and actors, Reel Injun traces how the image of First Nations people in cinema have influenced the understanding and misunderstanding of their culture and history.
General
Complete name : Reel.Injun.avi
Format : AVI
Format/Info : Audio Video Interleave
File size : 748 MiB
Duration : 1h 4mn
Overall bit rate : 1 612 Kbps
Writing application : VirtualDubMod 1.5.4.1 (build 2178/release)
Writing library : VirtualDubMod build 2178/release

Video
ID : 0
Format : MPEG-4 Visual
Format profile : Advanced Simple@L5
Format settings, BVOP : 1
Format settings, QPel : No
Format settings, GMC : No warppoints
Format settings, Matrix : Custom
Codec ID : XVID
Codec ID/Hint : XviD
Duration : 1h 4mn
Bit rate : 1 477 Kbps
Width : 720 pixels
Height : 416 pixels
Display aspect ratio : 1.731
Frame rate : 23.976 fps
Color space : YUV
Chroma subsampling : 4:2:0
Bit depth : 8 bits
Scan type : Progressive
Compression mode : Lossy
Bits/(Pixel*Frame) : 0.206
Stream size : 685 MiB (92%)
Writing library : XviD 1.2.1 (UTC 2008-12-04)

Audio
ID : 1
Format : MPEG Audio
Format version : Version 1
Format profile : Layer 3
Mode : Joint stereo
Mode extension : MS Stereo
Codec ID : 55
Codec ID/Hint : MP3
Duration : 1h 4mn
Bit rate mode : Constant
Bit rate : 128 Kbps
Channel(s) : 2 channels
Sampling rate : 48.0 KHz
Compression mode : Lossy
Stream size : 59.4 MiB (8%)
Alignment : Aligned on interleaves
Interleave, duration : 83 ms (2.00 video frames)
Interleave, preload duration : 504 ms
Writing library : LAME3.98r
Encoding settings : -m j -V 4 -q 2 -lowpass 17 -b 128

Screenshots

CBC - Reel Injun (2009)

CBC - Reel Injun (2009)

CBC - Reel Injun (2009)

no mirrors please, Follow The Rules
Visit Polik88 Blog Here
no password