CT Fletcher: My Magnificent Obsession (2015)

Posted By: NaVi7
CT Fletcher: My Magnificent Obsession (2015)

CT Fletcher: My Magnificent Obsession (2015)
WEB-DL 1080p | MP4 / AVC, 4480 Kbps | 1920x1080 | 1h 41mn | 3.37 GiB
English: AAC, 256 Kbps (2 ch) | Subtitles: None
Genre: Documentary | Drama | Sport

C.T. Fletcher shows you his story, and what he's all about.

imdb

General
Complete name : CT Fletcher- My Magnificent Obsession-HD.mp4
Format : MPEG-4
Format profile : Base Media / Version 2
Codec ID : mp42
File size : 3.37 GiB
Duration : 1h 41mn
Overall bit rate mode : Variable
Overall bit rate : 4 740 Kbps
Encoded date : UTC 2015-09-15 23:06:33
Tagged date : UTC 2015-09-15 23:06:33

Video
ID : 1
Format : AVC
Format/Info : Advanced Video Codec
Format profile : High@L4
Format settings, CABAC : Yes
Format settings, ReFrames : 4 frames
Codec ID : avc1
Codec ID/Info : Advanced Video Coding
Duration : 1h 41mn
Bit rate : 4 480 Kbps
Width : 1 920 pixels
Height : 1 080 pixels
Display aspect ratio : 16:9
Frame rate mode : Constant
Frame rate : 23.976 fps
Color space : YUV
Chroma subsampling : 4:2:0
Bit depth : 8 bits
Scan type : Progressive
Bits/(Pixel*Frame) : 0.090
Stream size : 3.18 GiB (95%)
Writing library : x264 core 148 r11 73ae2d1
Encoding settings : cabac=1 / ref=4 / deblock=1:0:0 / analyse=0x3:0x113 / me=umh / subme=8 / psy=1 / psy_rd=1.00:0.00 / mixed_ref=1 / me_range=16 / chroma_me=1 / trellis=1 / 8x8dct=1 / cqm=0 / deadzone=21,11 / fast_pskip=1 / chroma_qp_offset=-2 / threads=34 / lookahead_threads=5 / sliced_threads=0 / nr=0 / decimate=1 / interlaced=0 / bluray_compat=0 / stitchable=1 / constrained_intra=0 / bframes=3 / b_pyramid=2 / b_adapt=2 / b_bias=0 / direct=3 / weightb=1 / open_gop=0 / weightp=2 / keyint=infinite / keyint_min=23 / scenecut=40 / intra_refresh=0 / rc_lookahead=50 / rc=crf / mbtree=1 / crf=20.0 / qcomp=0.60 / qpmin=5 / qpmax=69 / qpstep=4 / vbv_maxrate=4950 / vbv_bufsize=13500 / crf_max=0.0 / nal_hrd=none / filler=0 / ip_ratio=1.40 / aq=1:1.00
Encoded date : UTC 2015-09-15 23:06:33
Tagged date : UTC 2015-09-15 23:06:33
Color range : Limited
Color primaries : BT.709
Transfer characteristics : BT.709
Matrix coefficients : BT.709

Audio
ID : 2
Format : AAC
Format/Info : Advanced Audio Codec
Format profile : LC
Codec ID : 40
Duration : 1h 41mn
Bit rate mode : Variable
Bit rate : 256 Kbps
Channel(s) : 2 channels
Channel positions : Front: L R
Sampling rate : 48.0 KHz
Compression mode : Lossy
Stream size : 186 MiB (5%)
Encoded date : UTC 2015-09-15 23:06:33
Tagged date : UTC 2015-09-15 23:06:33


screenshots:

CT Fletcher: My Magnificent Obsession (2015)

CT Fletcher: My Magnificent Obsession (2015)

CT Fletcher: My Magnificent Obsession (2015)