Tags
Language
Tags

Cabin Fever (2003)

Posted By: Tavaz
1080p (FullHD) / BDRip IMDb
Cabin Fever (2003)

Cabin Fever (2003)
BDRip | MKV | 1920x800 | English | H264 @ 7926 kbps | DTS @ 1509 kbps | 1 h 37 min | 6.51 GiB
Subtitles: Spanish, English
Genre: Horror

A group of five college graduates rent a cabin in the woods and begin to fall victim to a horrifying flesh-eating virus, which attracts the unwanted attention of the homicidal locals.

fbgY8JL85sYnprRN8gBo3TBArg5.mkv (6.5 GB)



General
Complete name : ./fbgY8JL85sYnprRN8gBo3TBArg5.mkv
Format : Matroska
Format version : Version 4 / Version 2
File size : 6.51 GiB
Duration : 1 h 37 min
Overall bit rate : 9 527 kb/s
Encoded date : UTC 2018-07-14 08:11:13
Writing application : mkvmerge v20.0.0 ('I Am The Sun') 64-bit
Writing library : libebml v1.3.5 + libmatroska v1.4.8

Video
ID : 1
Format : AVC
Format/Info : Advanced Video Codec
Format profile : High@L4.1
Format settings : CABAC / 5 Ref Frames
Format settings, CABAC : Yes
Format settings, RefFrames : 5 frames
Codec ID : V_MPEG4/ISO/AVC
Duration : 1 h 37 min
Bit rate : 7 926 kb/s
Width : 1 920 pixels
Height : 800 pixels
Display aspect ratio : 2.40:1
Frame rate mode : Constant
Frame rate : 23.976 (24000/1001) FPS
Color space : YUV
Chroma subsampling : 4:2:0
Bit depth : 8 bits
Scan type : Progressive
Bits/(Pixel*Frame) : 0.215
Stream size : 5.41 GiB (83%)
Title : MPEG-4 AVC Video / 7926 kbps / 23.976 fps / High Profile 4.1
Writing library : x264 core 155 r2901 7d0ff22
Encoding settings : cabac=1 / ref=5 / deblock=1:-2:-2 / analyse=0x3:0x113 / me=umh / subme=10 / psy=1 / psy_rd=1.00:0.25 / mixed_ref=1 / me_range=32 / chroma_me=1 / trellis=2 / 8x8dct=1 / cqm=0 / deadzone=6,6 / fast_pskip=0 / chroma_qp_offset=-4 / threads=12 / lookahead_threads=1 / sliced_threads=0 / nr=0 / decimate=0 / interlaced=0 / bluray_compat=0 / constrained_intra=0 / bframes=6 / b_pyramid=2 / b_adapt=2 / b_bias=0 / direct=3 / weightb=1 / open_gop=0 / weightp=2 / keyint=240 / keyint_min=23 / scenecut=40 / intra_refresh=0 / rc_lookahead=60 / rc=2pass / mbtree=0 / bitrate=7926 / ratetol=1.0 / qcomp=0.80 / qpmin=0 / qpmax=35 / qpstep=4 / cplxblur=20.0 / qblur=0.5 / vbv_maxrate=30000 / vbv_bufsize=38000 / nal_hrd=none / filler=0 / ip_ratio=1.10 / pb_ratio=1.10 / aq=1:0.50
Language : English
Default : Yes
Forced : No
Color range : Limited
Color primaries : BT.709
Transfer characteristics : BT.709
Matrix coefficients : BT.709

Audio
ID : 2
Format : DTS
Format/Info : Digital Theater Systems
Mode : 16
Format settings, Endianness : Big
Codec ID : A_DTS
Duration : 1 h 37 min
Bit rate mode : Constant
Bit rate : 1 509 kb/s
Channel(s) : 6 channels
Channel positions : Front: L C R, Side: L R, LFE
Sampling rate : 48.0 kHz
Frame rate : 93.750 FPS (512 SPF)
Bit depth : 24 bits
Compression mode : Lossy
Stream size : 1.03 GiB (16%)
Title : DTS Audio / 5.1 / 48 kHz / 1509 Kbps
Language : English
Default : Yes
Forced : No

Text #1
ID : 3
Format : PGS
Codec ID : S_HDMV/PGS
Codec ID/Info : Picture based subtitle format used on BDs/HD-DVDs
Duration : 1 h 28 min
Bit rate : 33.8 kb/s
Count of elements : 1816
Stream size : 21.4 MiB (0%)
Language : English
Default : No
Forced : No

Text #2
ID : 4
Format : PGS
Codec ID : S_HDMV/PGS
Codec ID/Info : Picture based subtitle format used on BDs/HD-DVDs
Duration : 1 h 37 min
Bit rate : 35.2 kb/s
Count of elements : 2238
Stream size : 24.5 MiB (0%)
Title : English (SDH)
Language : English
Default : No
Forced : No

Text #3
ID : 5
Format : PGS
Codec ID : S_HDMV/PGS
Codec ID/Info : Picture based subtitle format used on BDs/HD-DVDs
Duration : 1 h 35 min
Bit rate : 25.0 kb/s
Count of elements : 1826
Stream size : 17.0 MiB (0%)
Title : Spanish (Latin American)
Language : Spanish
Default : No
Forced : No

Menu
00:00:00.000 : en:Infected Dog
00:04:55.962 : en:Paul Meets Dennis
00:11:04.497 : en:Old Man Cadwell
00:17:54.073 : en:The Cabin
00:24:34.723 : en:Squirrel Hunting
00:29:30.935 : en:Lenny Mead's Bowling Alley Massacre
00:35:35.758 : en:Smoking with Grim
00:42:23.499 : en:Burn the Hermit
00:51:30.295 : en:The Hog Lady
00:57:19.436 : en:Deputy Winston
01:01:30.436 : en:What to Do…
01:06:30.695 : en:Red Love
01:11:56.437 : en:The Shed
01:16:57.988 : en:Bert Loses the Bet
01:21:22.878 : en:Karen Falls Apart
01:25:12.023 : en:Pancakes





Cabin Fever (2003)


Cabin Fever (2003)


Cabin Fever (2003)


Cabin Fever (2003)


Cabin Fever (2003)