Tags
Language
Tags
February 2023
Su Mo Tu We Th Fr Sa
29 30 31 1 2 3 4
5 6 7 8 9 10 11
12 13 14 15 16 17 18
19 20 21 22 23 24 25
26 27 28 1 2 3 4

Captain America: Civil War (2016)

Posted By: Tavaz
1080p (FullHD) / BDRip IMDb
Captain America: Civil War (2016)

Captain America: Civil War (2016)
BDRip | MKV | 1920x804 | English / English | H264 @ 12562 kbps | DTS @ 1509 kbps | 2 h 27 min | 14.6 GiB
Subtitles: Swedish, Estonian, Vietnamese, Serbian, Dutch, Danish, Bulgarian, Hungarian, Turkish, Malay, French, Norwegian, Finnish, Spanish, Indonesian, Greek, English, Portuguese, Persian, Hebrew, Polish, Arabic
Genre: Action, Adventure, Science Fiction

Following the events of Age of Ultron, the collective governments of the world pass an act designed to regulate all superhuman activity. This polarizes opinion amongst the Avengers, causing two factions to side with Iron Man or Captain America, which causes an epic battle between former allies.

Captain.America.Civil.War.2016.1080p.BluRay.DTS.x264-TayTO=a1177bf5c4de445a8b5598ed06c94443.part1.rar (7.7 GB)
Captain.America.Civil.War.2016.1080p.BluRay.DTS.x264-TayTO=a1177bf5c4de445a8b5598ed06c94443.part2.rar (7.1 GB)



General
Unique ID : 206030838066049898184119815764407908327 (0x9B001896B940CE78BF3C4D0DEA2677E7)
Complete name : ./Captain.America.Civil.War.2016.1080p.BluRay.DTS.x264-TayTO/Captain.America.Civil.War.2016.1080p.BluRay.DTS.x264-TayTO.mkv
Format : Matroska
Format version : Version 4 / Version 2
File size : 14.6 GiB
Duration : 2 h 27 min
Overall bit rate : 14.2 Mb/s
Movie name : Captain America: Civil War 2016 1080p BluRay DTS x264-TayTO
Encoded date : UTC 2016-09-04 23:35:46
Writing application : mkvmerge v8.2.0 ('World of Adventure') 64bit
Writing library : libebml v1.3.1 + libmatroska v1.4.2
Cover : Yes
Attachments : Cover.png

Video
ID : 1
Format : AVC
Format/Info : Advanced Video Codec
Format profile : High@L4.1
Format settings : CABAC / 5 Ref Frames
Format settings, CABAC : Yes
Format settings, RefFrames : 5 frames
Codec ID : V_MPEG4/ISO/AVC
Duration : 2 h 27 min
Bit rate : 12.6 Mb/s
Width : 1 920 pixels
Height : 804 pixels
Display aspect ratio : 2.40:1
Frame rate mode : Constant
Frame rate : 23.976 (24000/1001) FPS
Color space : YUV
Chroma subsampling : 4:2:0
Bit depth : 8 bits
Scan type : Progressive
Bits/(Pixel*Frame) : 0.339
Stream size : 13.0 GiB (89%)
Title : Captain America: Civil War 2016 1080p BluRay DTS x264-TayTO
Writing library : x264 core 148 r2705+54 9f484c1 t_mod_Custom [8-bit@all X86_64]
Encoding settings : cabac=1 / ref=5 / deblock=1:-3:-3 / analyse=0x3:0x133 / me=umh / subme=11 / psy=1 / fade_compensate=0.00 / psy_rd=1.05:0.00 / mixed_ref=1 / me_range=32 / chroma_me=1 / trellis=2 / 8x8dct=1 / cqm=0 / deadzone=21,11 / fast_pskip=0 / chroma_qp_offset=-2 / threads=12 / lookahead_threads=2 / sliced_threads=0 / nr=0 / decimate=0 / interlaced=0 / bluray_compat=0 / constrained_intra=0 / fgo=0 / bframes=9 / b_pyramid=2 / b_adapt=2 / b_bias=0 / direct=3 / weightb=1 / open_gop=0 / weightp=2 / keyint=250 / keyint_min=23 / scenecut=40 / intra_refresh=0 / rc_lookahead=60 / rc=crf / mbtree=0 / crf=17.0000 / qcomp=0.65 / qpmin=0:0:0 / qpmax=69:69:69 / qpstep=4 / vbv_maxrate=62500 / vbv_bufsize=78125 / crf_max=0.0 / nal_hrd=none / filler=0 / ip_ratio=1.30 / pb_ratio=1.20 / aq=3:0.75 / aq-sensitivity=10.00 / aq-factor=1.00:1.00:1.00 / aq2=0 / aq3=0 / zones=140,444,crf=15.5/1040,1422,crf=15.5/1423,3066,crf=16/3067,3090,crf=15.5/3115,3192,crf=15.5/3915,4463,crf=15.5/8356,8380,crf=15.5/8899,9010,crf=15.5/9511,9634,crf=15.5/9635,9917,crf=16/9918,10040,crf=15.5/10041,10060,crf=14/10061,10208,crf=15.5/10562,10692,crf=15.5/11919,12149,crf=15.5/12319,12359,crf=15.5/15936,15942,crf=15.5/15966,15987,crf=15.5/17991,18189,crf=15.5/18398,18461,crf=15.5/23371,23888,crf=15.8/35085,35990,crf=15.8/38869,39030,crf=15.8/40571,45456,crf=16.5/45570,45618,crf=15.5/45969,46091,crf=15.5/47028,47267,crf=15.8/48187,48359,crf=15.8/53862,54650,crf=15.8/56484,56900,crf=15.8/62537,62637,crf=15.8/62696,62737,crf=16/63118,63629,crf=15.8/65040,65103,crf=13/65158,65327,crf=16/65390,65490,crf=16/65536,65957,crf=16/65957,65973,crf=15.5/65980,66298,crf=16.5/66299,66349,crf=15.5/66546,66561,crf=15.5/66687,66707,crf=15.5/66855,66872,crf=14/66977,67081,crf=15.5/67097,68499,crf=15.5/68646,69144,crf=15.8/69218,69236,crf=15.8/69250,69274,crf=15.8/69490,69557,crf=15.8/69601,69690,crf=15.8/69726,69845,crf=15.8/69922,69949,crf=15.8/69959,70420,crf=15.8/71627,73019,crf=15.8/73020,73033,crf=14/73034,73179,crf=15.8/73180,73265,crf=14/73266,74915,crf=15.8/75331,76376,crf=15.8/76377,76425,crf=14/76426,76458,crf=16/76459,76631,crf=15/76687,76890,crf=15/76891,77065,crf=16/77066,77140,crf=15/77141,77297,crf=16/77298,77342,crf=15/77343,77519,crf=16/77520,77612,crf=15.5/77613,77648,crf=16/77649,77805,crf=15/77806,77875,crf=16/77876,77937,crf=15.5/79009,79158,crf=15.8/79498,79580,crf=15.8/92038,92596,crf=15.5/92597,92769,crf=13/92770,93137,crf=15.5/93138,93178,crf=15/93179,94443,crf=15.5/94700,94717,crf=15.5/95930,95998,crf=15.8/96994,97781,crf=16.5/98905,100787,crf=15.8/100788,100834,crf=13/100835,100866,crf=15.8/104178,104929,crf=15.8/108193,108563,crf=16.5/109965,110051,crf=16/110103,110137,crf=16/110197,110275,crf=16/110329,111098,crf=15.5/112679,112919,crf=15/112946,112969,crf=15/113077,113100,crf=15/113142,113819,crf=15/114049,114146,crf=14/114178,114195,crf=15/114604,114697,crf=15/114738,114800,crf=15/114896,115006,crf=15/115059,115086,crf=15/115182,115217,crf=15/115282,115350,crf=15/115376,115398,crf=15/115540,115595,crf=15.5/115800,115947,crf=15.5/116044,118017,crf=16.5/118018,118269,crf=15.5/118330,118346,crf=13/118400,118476,crf=15/118506,118542,crf=15/118788,119132,crf=15.8/119437,119451,crf=16.5/119919,119947,crf=15.5/120462,120492,crf=13/120920,121838,crf=16.5/121895,122329,crf=15.8/127519,127575,crf=15.8/127624,127704,crf=15.8/127895,127997,crf=15.8/128198,128348,crf=15.8/128853,128955,crf=15.8/129228,130336,crf=15.8/130623,130660,crf=15.8/133205,133227,crf=16/133262,133332,crf=15.5/135252,135458,crf=16.5/136865,140763,crf=16.5/140764,141308,crf=15.8/141500,146837,crf=16.5/148989,149530,crf=15.8/149665,149806,crf=15.8/150025,150115,crf=15.8/150161,150298,crf=15.8/150351,150538,crf=15.8/150596,150773,crf=15.8/151149,151255,crf=15.8/155089,156780,crf=15.8/157852,158309,crf=15.8/158404,158461,crf=15.8/158691,158919,crf=15.8/159133,159320,crf=15.8/159830,160460,crf=15/161173,161220,crf=16.5/162318,162382,crf=16.5/162937,163051,crf=16.5/165773,166224,crf=15.8/166369,166943,crf=15.8/167192,167315,crf=15.8/167192,167315,crf=15.8/167805,168053,crf=15.8/168054,168156,crf=15/169180,169255,crf=16/171155,174263,crf=16.5/174264,174396,crf=15.8/175625,175653,crf=15.8/175704,175747,crf=15.8/176293,176344,crf=15.8/177528,177622,crf=15.8/177714,177792,crf=16.5/177939,178034,crf=14/178039,178079,crf=15.8/178414,178454,crf=14/178684,178779,crf=15.8/178803,178849,crf=13/180162,180253,crf=14/180368,180406,crf=15.8/182907,185070,crf=15.8/178684,178779,crf=15.8/182532,182544,crf=15.5/182907,185070,crf=16.5/185216,186331,crf=16.5/186446,186482,crf=15.8/188144,188222,crf=15.5/201210,201361,crf=15.5/201370,210760,crf=22/212202,212305,crf=15.5
Language : English
Default : Yes
Forced : No
Color range : Limited
Matrix coefficients : BT.709

Audio #1
ID : 2
Format : DTS
Format/Info : Digital Theater Systems
Mode : 16
Format settings, Endianness : Big
Codec ID : A_DTS
Duration : 2 h 27 min
Bit rate mode : Constant
Bit rate : 1 509 kb/s
Channel(s) : 6 channels
Channel positions : Front: L C R, Side: L R, LFE
Sampling rate : 48.0 kHz
Frame rate : 93.750 FPS (512 SPF)
Bit depth : 24 bits
Compression mode : Lossy
Stream size : 1.56 GiB (11%)
Language : English
Default : Yes
Forced : No

Audio #2
ID : 3
Format : AC-3
Format/Info : Audio Coding 3
Format settings, Endianness : Big
Codec ID : A_AC3
Duration : 2 h 27 min
Bit rate mode : Constant
Bit rate : 96.0 kb/s
Channel(s) : 2 channels
Channel positions : Front: L R
Sampling rate : 48.0 kHz
Frame rate : 31.250 FPS (1536 SPF)
Bit depth : 16 bits
Compression mode : Lossy
Stream size : 101 MiB (1%)
Title : Commentary with Directors Anthony & Joe Russo and Screenwriters Christopher Markus & Stephen McFeely
Language : English
Service kind : Complete Main
Default : No
Forced : No

Text #1
ID : 4
Format : UTF-8
Codec ID : S_TEXT/UTF8
Codec ID/Info : UTF-8 Plain Text
Duration : 1 h 44 min
Bit rate : 1 b/s
Count of elements : 59
Stream size : 1 017 Bytes (0%)
Title : Forced
Language : English
Default : Yes
Forced : Yes

Text #2
ID : 5
Format : UTF-8
Codec ID : S_TEXT/UTF8
Codec ID/Info : UTF-8 Plain Text
Duration : 2 h 25 min
Bit rate : 48 b/s
Count of elements : 1792
Stream size : 52.2 KiB (0%)
Language : English
Default : No
Forced : No

Text #3
ID : 6
Format : UTF-8
Codec ID : S_TEXT/UTF8
Codec ID/Info : UTF-8 Plain Text
Duration : 2 h 26 min
Bit rate : 55 b/s
Count of elements : 2105
Stream size : 59.1 KiB (0%)
Title : SDH
Language : English
Default : No
Forced : No

Text #4
ID : 7
Format : UTF-8
Codec ID : S_TEXT/UTF8
Codec ID/Info : UTF-8 Plain Text
Duration : 2 h 27 min
Bit rate : 158 b/s
Count of elements : 3360
Stream size : 171 KiB (0%)
Title : Commentary
Language : English
Default : No
Forced : No

Text #5
ID : 8
Format : UTF-8
Codec ID : S_TEXT/UTF8
Codec ID/Info : UTF-8 Plain Text
Duration : 2 h 26 min
Bit rate : 75 b/s
Count of elements : 1558
Stream size : 80.7 KiB (0%)
Language : Arabic
Default : No
Forced : No

Text #6
ID : 9
Format : UTF-8
Codec ID : S_TEXT/UTF8
Codec ID/Info : UTF-8 Plain Text
Duration : 2 h 27 min
Bit rate : 76 b/s
Count of elements : 1147
Stream size : 82.5 KiB (0%)
Language : Bulgarian
Default : No
Forced : No

Text #7
ID : 10
Format : UTF-8
Codec ID : S_TEXT/UTF8
Codec ID/Info : UTF-8 Plain Text
Duration : 2 h 26 min
Bit rate : 44 b/s
Count of elements : 1281
Stream size : 48.1 KiB (0%)
Language : Danish
Default : No
Forced : No

Text #8
ID : 11
Format : UTF-8
Codec ID : S_TEXT/UTF8
Codec ID/Info : UTF-8 Plain Text
Duration : 2 h 26 min
Bit rate : 47 b/s
Count of elements : 1553
Stream size : 50.6 KiB (0%)
Language : Dutch
Default : No
Forced : No

Text #9
ID : 12
Format : UTF-8
Codec ID : S_TEXT/UTF8
Codec ID/Info : UTF-8 Plain Text
Duration : 2 h 26 min
Bit rate : 45 b/s
Count of elements : 1355
Stream size : 49.1 KiB (0%)
Language : Estonian
Default : No
Forced : No

Text #10
ID : 13
Format : UTF-8
Codec ID : S_TEXT/UTF8
Codec ID/Info : UTF-8 Plain Text
Duration : 2 h 26 min
Bit rate : 44 b/s
Count of elements : 1682
Stream size : 47.6 KiB (0%)
Language : Finnish
Default : No
Forced : No

Text #11
ID : 14
Format : UTF-8
Codec ID : S_TEXT/UTF8
Codec ID/Info : UTF-8 Plain Text
Duration : 2 h 26 min
Bit rate : 44 b/s
Count of elements : 1614
Stream size : 47.7 KiB (0%)
Language : French
Default : No
Forced : No

Text #12
ID : 15
Format : UTF-8
Codec ID : S_TEXT/UTF8
Codec ID/Info : UTF-8 Plain Text
Duration : 2 h 27 min
Bit rate : 110 b/s
Count of elements : 3073
Stream size : 119 KiB (0%)
Title : Commentary
Language : French
Default : No
Forced : No

Text #13
ID : 16
Format : UTF-8
Codec ID : S_TEXT/UTF8
Codec ID/Info : UTF-8 Plain Text
Duration : 2 h 26 min
Bit rate : 88 b/s
Count of elements : 1586
Stream size : 95.2 KiB (0%)
Language : Greek
Default : No
Forced : No

Text #14
ID : 17
Format : UTF-8
Codec ID : S_TEXT/UTF8
Codec ID/Info : UTF-8 Plain Text
Duration : 2 h 26 min
Bit rate : 65 b/s
Count of elements : 1508
Stream size : 70.7 KiB (0%)
Language : Hebrew
Default : No
Forced : No

Text #15
ID : 18
Format : UTF-8
Codec ID : S_TEXT/UTF8
Codec ID/Info : UTF-8 Plain Text
Duration : 2 h 26 min
Bit rate : 49 b/s
Count of elements : 1210
Stream size : 53.4 KiB (0%)
Language : Hungarian
Default : No
Forced : No

Text #16
ID : 19
Format : UTF-8
Codec ID : S_TEXT/UTF8
Codec ID/Info : UTF-8 Plain Text
Duration : 2 h 26 min
Bit rate : 49 b/s
Count of elements : 1556
Stream size : 52.8 KiB (0%)
Language : Indonesian
Default : No
Forced : No

Text #17
ID : 20
Format : UTF-8
Codec ID : S_TEXT/UTF8
Codec ID/Info : UTF-8 Plain Text
Duration : 2 h 26 min
Bit rate : 52 b/s
Count of elements : 1555
Stream size : 56.0 KiB (0%)
Language : Malay
Default : No
Forced : No

Text #18
ID : 21
Format : UTF-8
Codec ID : S_TEXT/UTF8
Codec ID/Info : UTF-8 Plain Text
Duration : 2 h 26 min
Bit rate : 46 b/s
Count of elements : 1684
Stream size : 49.5 KiB (0%)
Language : Norwegian
Default : No
Forced : No

Text #19
ID : 22
Format : UTF-8
Codec ID : S_TEXT/UTF8
Codec ID/Info : UTF-8 Plain Text
Duration : 2 h 26 min
Bit rate : 76 b/s
Count of elements : 1595
Stream size : 82.4 KiB (0%)
Language : Persian
Default : No
Forced : No

Text #20
ID : 23
Format : UTF-8
Codec ID : S_TEXT/UTF8
Codec ID/Info : UTF-8 Plain Text
Duration : 2 h 26 min
Bit rate : 45 b/s
Count of elements : 1274
Stream size : 48.3 KiB (0%)
Language : Polish
Default : No
Forced : No

Text #21
ID : 24
Format : UTF-8
Codec ID : S_TEXT/UTF8
Codec ID/Info : UTF-8 Plain Text
Duration : 2 h 26 min
Bit rate : 52 b/s
Count of elements : 1584
Stream size : 56.4 KiB (0%)
Language : Portuguese
Default : No
Forced : No

Text #22
ID : 25
Format : UTF-8
Codec ID : S_TEXT/UTF8
Codec ID/Info : UTF-8 Plain Text
Duration : 2 h 26 min
Bit rate : 50 b/s
Count of elements : 1685
Stream size : 54.3 KiB (0%)
Language : Spanish
Default : No
Forced : No

Text #23
ID : 26
Format : UTF-8
Codec ID : S_TEXT/UTF8
Codec ID/Info : UTF-8 Plain Text
Duration : 2 h 26 min
Bit rate : 45 b/s
Count of elements : 1283
Stream size : 49.0 KiB (0%)
Language : Serbian
Default : No
Forced : No

Text #24
ID : 27
Format : UTF-8
Codec ID : S_TEXT/UTF8
Codec ID/Info : UTF-8 Plain Text
Duration : 2 h 26 min
Bit rate : 43 b/s
Count of elements : 1115
Stream size : 46.3 KiB (0%)
Language : Swedish
Default : No
Forced : No

Text #25
ID : 28
Format : UTF-8
Codec ID : S_TEXT/UTF8
Codec ID/Info : UTF-8 Plain Text
Duration : 2 h 26 min
Bit rate : 53 b/s
Count of elements : 1448
Stream size : 57.7 KiB (0%)
Language : Turkish
Default : No
Forced : No

Text #26
ID : 29
Format : UTF-8
Codec ID : S_TEXT/UTF8
Codec ID/Info : UTF-8 Plain Text
Duration : 2 h 26 min
Bit rate : 68 b/s
Count of elements : 1830
Stream size : 72.9 KiB (0%)
Title : PDV
Language : Vietnamese
Default : No
Forced : No

Menu
00:00:00.000 : en:Prologue
00:09:01.958 : en:Lagos
00:13:04.992 : en:I'm Right Where I Want to Be
00:21:03.345 : en:The Sokovia Accords
00:27:53.380 : en:We Need to Be Put in Check
00:31:57.290 : en:Peggy's Funeral
00:35:08.397 : en:Supporting the Initiative
00:42:58.450 : en:It Always Ends in a Fight
00:52:04.621 : en:Bucky's Evaluation
01:05:39.101 : en:Breakout
01:16:41.638 : en:Queens
01:22:28.777 : en:Hawkeye Returns
01:29:29.489 : en:You're After the Wrong Guy
01:34:09.769 : en:We Fight
01:45:38.582 : en:We Played This Wrong
01:55:54.322 : en:Zemo Revealed
02:02:35.056 : en:Steve vs. Tony
02:12:14.176 : en:We All Need Family
02:18:29.384 : en:End Credits





Captain America: Civil War (2016)


Captain America: Civil War (2016)


Captain America: Civil War (2016)


Captain America: Civil War (2016)


Captain America: Civil War (2016)