Tags
Language
Tags

Captain America: The First Avenger (2011)

Posted By: Tavaz
1080p (FullHD) / BDRip IMDb
Captain America: The First Avenger (2011)

Captain America: The First Avenger (2011)
BDRip | MKV | 1920x816 | English | H264 @ 8569 kbps | DTS @ 1509 kbps | 2 h 4 min | 8.74 GiB
Genre: Action, Adventure, Science Fiction

Predominantly set during World War II, Steve Rogers is a sickly man from Brooklyn who's transformed into super-soldier Captain America to aid in the war effort. Rogers must stop the Red Skull – Adolf Hitler's ruthless head of weaponry, and the leader of an organization that intends to use a mysterious device of untold powers for world domination.

Captain.America.The.First.Avenger.2011.1080p.BluRay.x264-MaxHD=de1b48adfdad74b14761a71272c65afc81490fe9.part1.rar (4.6 GB)
Captain.America.The.First.Avenger.2011.1080p.BluRay.x264-MaxHD=de1b48adfdad74b14761a71272c65afc81490fe9.part2.rar (4.2 GB)



General
Unique ID : 194900846439648255209713845374264012944 (0x92A089A2695BD3A5A1C0CEB33F93F090)
Complete name : ./maxhd-catfa-1080p-rerip.mkv
Format : Matroska
Format version : Version 2
File size : 8.74 GiB
Duration : 2 h 4 min
Overall bit rate : 10.1 Mb/s
Encoded date : UTC 2011-10-15 00:46:17
Writing application : mkvmerge v4.8.0 ('I Got The…') built on May 24 2011 03:12:58
Writing library : libebml v1.2.0 + libmatroska v1.1.0

Video
ID : 1
Format : AVC
Format/Info : Advanced Video Codec
Format profile : High@L4.1
Format settings : CABAC / 5 Ref Frames
Format settings, CABAC : Yes
Format settings, RefFrames : 5 frames
Muxing mode : Header stripping
Codec ID : V_MPEG4/ISO/AVC
Duration : 2 h 4 min
Bit rate : 8 569 kb/s
Width : 1 920 pixels
Height : 816 pixels
Display aspect ratio : 2.35:1
Frame rate mode : Constant
Frame rate : 23.976 (24000/1001) FPS
Color space : YUV
Chroma subsampling : 4:2:0
Bit depth : 8 bits
Scan type : Progressive
Bits/(Pixel*Frame) : 0.228
Stream size : 7.26 GiB (83%)
Writing library : x264 core 118 r2085 8a62835
Encoding settings : cabac=1 / ref=5 / deblock=1:0:0 / analyse=0x3:0x113 / me=umh / subme=7 / psy=1 / psy_rd=1.00:0.15 / mixed_ref=1 / me_range=16 / chroma_me=1 / trellis=1 / 8x8dct=1 / cqm=0 / deadzone=21,11 / fast_pskip=0 / chroma_qp_offset=-3 / threads=12 / sliced_threads=0 / nr=0 / decimate=1 / interlaced=0 / bluray_compat=0 / constrained_intra=0 / bframes=3 / b_pyramid=2 / b_adapt=1 / b_bias=0 / direct=1 / weightb=1 / open_gop=0 / weightp=2 / keyint=250 / keyint_min=23 / scenecut=40 / intra_refresh=0 / rc_lookahead=40 / rc=2pass / mbtree=1 / bitrate=8569 / ratetol=1.0 / qcomp=0.60 / qpmin=0 / qpmax=69 / qpstep=4 / cplxblur=20.0 / qblur=0.5 / ip_ratio=1.40 / aq=1:1.00
Language : English
Default : Yes
Forced : No

Audio
ID : 2
Format : DTS
Format/Info : Digital Theater Systems
Mode : 16
Format settings, Endianness : Big
Muxing mode : Header stripping
Codec ID : A_DTS
Duration : 2 h 4 min
Bit rate mode : Constant
Bit rate : 1 509 kb/s
Channel(s) : 6 channels
Channel positions : Front: L C R, Side: L R, LFE
Sampling rate : 48.0 kHz
Frame rate : 93.750 FPS (512 SPF)
Bit depth : 24 bits
Compression mode : Lossy
Stream size : 1.31 GiB (15%)
Language : English
Default : Yes
Forced : No





Captain America: The First Avenger (2011)


Captain America: The First Avenger (2011)


Captain America: The First Avenger (2011)


Captain America: The First Avenger (2011)


Captain America: The First Avenger (2011)