Tags
Language
Tags

Captain America: The First Avenger (2011)

Posted By: Tavaz
1080p (FullHD) / BDRip IMDb
Captain America: The First Avenger (2011)

Captain America: The First Avenger (2011)
BDRip | MKV | 1920x816 | English / Chinese | H264 @ 13046 kbps | DTS @ 1509 kbps | 2 h 4 min | 13.0 GiB
Genre: Action, Adventure, Science Fiction

Predominantly set during World War II, Steve Rogers is a sickly man from Brooklyn who's transformed into super-soldier Captain America to aid in the war effort. Rogers must stop the Red Skull – Adolf Hitler's ruthless head of weaponry, and the leader of an organization that intends to use a mysterious device of untold powers for world domination.

Captain.America.The.First.Avenger.2011.1080p.BluRay.x264.DTS-WiKi=e18681efff2d26e5e3dd35e30dcbfbe964725d08.part1.rar (6.8 GB)
Captain.America.The.First.Avenger.2011.1080p.BluRay.x264.DTS-WiKi=e18681efff2d26e5e3dd35e30dcbfbe964725d08.part2.rar (6.3 GB)



General
Complete name : ./74de85d67e834e95914a37055ce3c43e.mkv
Format : Matroska
Format version : Version 1
File size : 13.0 GiB
Duration : 2 h 4 min
Overall bit rate : 15.0 Mb/s
Encoded date : UTC 2011-10-22 17:19:52
Writing application : mkvmerge v2.2.0 ('Turn It On Again') built on Mar 4 2008 13:20:25
Writing library : libebml v0.7.7 + libmatroska v0.8.1

Video
ID : 1
Format : AVC
Format/Info : Advanced Video Codec
Format profile : High@L4.1
Format settings : CABAC / 4 Ref Frames
Format settings, CABAC : Yes
Format settings, RefFrames : 4 frames
Codec ID : V_MPEG4/ISO/AVC
Duration : 2 h 4 min
Bit rate : 13.0 Mb/s
Width : 1 920 pixels
Height : 816 pixels
Display aspect ratio : 2.35:1
Frame rate mode : Constant
Frame rate : 23.976 FPS
Color space : YUV
Chroma subsampling : 4:2:0
Bit depth : 8 bits
Scan type : Progressive
Bits/(Pixel*Frame) : 0.347
Stream size : 11.1 GiB (85%)
Writing library : x264 core 98 r1649 c54c47d
Encoding settings : cabac=1 / ref=4 / deblock=1:-3:-3 / analyse=0x3:0x113 / me=umh / subme=9 / psy=1 / psy_rd=1.10:0.00 / mixed_ref=1 / me_range=32 / chroma_me=1 / trellis=2 / 8x8dct=1 / cqm=0 / deadzone=21,11 / fast_pskip=0 / chroma_qp_offset=-4 / threads=12 / sliced_threads=0 / nr=0 / decimate=0 / interlaced=0 / constrained_intra=0 / bframes=6 / b_pyramid=2 / b_adapt=2 / b_bias=0 / direct=3 / weightb=1 / weightp=2 / keyint=250 / keyint_min=25 / scenecut=40 / intra_refresh=0 / rc_lookahead=48 / rc=2pass / mbtree=1 / bitrate=13046 / ratetol=1.0 / qcomp=0.60 / qpmin=10 / qpmax=51 / qpstep=4 / cplxblur=20.0 / qblur=0.5 / ip_ratio=1.40 / aq=1:0.80
Language : English
Default : Yes
Forced : No

Audio #1
ID : 2
Format : DTS
Format/Info : Digital Theater Systems
Mode : 16
Format settings, Endianness : Big
Codec ID : A_DTS
Duration : 2 h 4 min
Bit rate mode : Constant
Bit rate : 1 509 kb/s
Channel(s) : 6 channels
Channel positions : Front: L C R, Side: L R, LFE
Sampling rate : 48.0 kHz
Frame rate : 93.750 FPS (512 SPF)
Bit depth : 24 bits
Compression mode : Lossy
Stream size : 1.31 GiB (10%)
Title : 英语
Language : English
Default : Yes
Forced : No

Audio #2
ID : 3
Format : AC-3
Format/Info : Audio Coding 3
Format settings, Endianness : Big
Codec ID : A_AC3
Duration : 2 h 4 min
Bit rate mode : Constant
Bit rate : 448 kb/s
Channel(s) : 6 channels
Channel positions : Front: L C R, Side: L R, LFE
Sampling rate : 48.0 kHz
Frame rate : 31.250 FPS (1536 SPF)
Bit depth : 16 bits
Compression mode : Lossy
Stream size : 398 MiB (3%)
Title : 国语
Language : Chinese
Service kind : Complete Main
Default : No
Forced : No





Captain America: The First Avenger (2011)


Captain America: The First Avenger (2011)


Captain America: The First Avenger (2011)


Captain America: The First Avenger (2011)


Captain America: The First Avenger (2011)