Tags
Language
Tags

Casanova (2005)

Posted By: Nedulow
1080p (FullHD) / BDRip IMDb
Casanova (2005)

Casanova (2005)
BRRip | MKV / AVC@3886 kb/s | 1160x488 | 1h 51mn
English: AC3, 448 kb/s (6 ch) | Subtitles: English | 3.45 GB
BDRip 720p | MKV / AVC@ kb/s | 1280x538 | 1h 51mn
English: AC3, 640 kb/s (6 ch) / Commentary: AAC, 60 kb/s (2 ch) | Subtitles: English | 5.57 GB
BDRip 1080p | MKV / AVC@14.6 Mb/s | 1916x806 | 1h 51mn
English: DTS, 1509 kb/s (6 ch) / Commentary: AC3, 192 kb/s (2 ch) | Subtitles: English | 13 GB
Genre: Adventure, Comedy, Drama

The fabled romantic Giacomo Casanova, after failing to win the affection of the Venetian woman Francesca Bruni, strives to discover the real meaning of love.


General
Unique ID : 181841867878476092030132455394980423341 (0x88CD784806F094B09DF094E0499C66AD)
Complete name : C:\Casanova.2005.BRRip.mkv
Format : Matroska
Format version : Version 2
File size : 3.45 GiB
Duration : 1 h 51 min
Overall bit rate : 4 422 kb/s
Movie name : Casanova.2005.BDRip.x264.DD5.1.Rus.Eng-E76
Encoded date : UTC 2021-12-07 20:35:46
Writing application : mkvmerge v7.8.0 ('River Man') 32bit built on Apr 3 2015 12:11:22
Writing library : libebml v1.3.1 + libmatroska v1.4.2

Video
ID : 1
Format : AVC
Format/Info : Advanced Video Codec
Format profile : High@L4.1
Format settings : CABAC / 10 Ref Frames
Format settings, CABAC : Yes
Format settings, Reference : 10 frames
Codec ID : V_MPEG4/ISO/AVC
Duration : 1 h 51 min
Bit rate : 3 886 kb/s
Width : 1 160 pixels
Height : 488 pixels
Display aspect ratio : 2.40:1
Frame rate mode : Constant
Frame rate : 23.976 (24000/1001) FPS
Color space : YUV
Chroma subsampling : 4:2:0
Bit depth : 8 bits
Scan type : Progressive
Bits/(Pixel*Frame) : 0.286
Stream size : 3.03 GiB (88%)
Title : Encode by Enclave76
Writing library : x264 core 129 r2230kMod 1cffe9f
Encoding settings : cabac=1 / ref=10 / deblock=1:-3:-2 / analyse=0x3:0x113 / me=umh / subme=11 / psy=1 / fade_compensate=0.00 / psy_rd=1.00:0.00 / mixed_ref=1 / me_range=48 / chroma_me=1 / trellis=2 / 8x8dct=1 / cqm=0 / deadzone=21,11 / fast_pskip=1 / chroma_qp_offset=-2 / threads=6 / lookahead_threads=1 / sliced_threads=0 / nr=0 / decimate=1 / interlaced=0 / bluray_compat=0 / constrained_intra=0 / bframes=12 / b_pyramid=2 / b_adapt=2 / b_bias=0 / direct=1 / weightb=1 / open_gop=0 / weightp=2 / keyint=240 / keyint_min=23 / scenecut=40 / intra_refresh=0 / rc_lookahead=40 / rc=crf / mbtree=0 / crf=17.8000 / qcomp=0.60 / qpmin=0 / qpmax=69 / qpstep=4 / vbv_maxrate=50000 / vbv_bufsize=62500 / crf_max=0.0 / nal_hrd=none / ip_ratio=1.40 / pb_ratio=1.20 / aq=3:1.00 / zones=152395,160559,q=30
Language : English
Default : No
Forced : No
Color range : Limited
Matrix coefficients : BT.709

Audio
ID : 2
Format : AC-3
Format/Info : Audio Coding 3
Commercial name : Dolby Digital
Codec ID : A_AC3
Duration : 1 h 51 min
Bit rate mode : Constant
Bit rate : 448 kb/s
Channel(s) : 6 channels
Channel layout : L R C LFE Ls Rs
Sampling rate : 48.0 kHz
Frame rate : 31.250 FPS (1536 SPF)
Bit depth : 16 bits
Compression mode : Lossy
Stream size : 358 MiB (10%)
Language : English
Service kind : Complete Main
Default : No
Forced : No

Text
ID : 3
Format : UTF-8
Codec ID : S_TEXT/UTF8
Codec ID/Info : UTF-8 Plain Text
Language : English
Default : No
Forced : No

Menu
00:00:00.000 : en:Opening Credits / Irresistible
00:07:57.102 : en:Help From Above
00:13:55.710 : en:Marriage Plans
00:19:32.880 : en:Duel at Dawn
00:27:15.509 : en:Secrets and Confessions
00:38:01.154 : en:Visitors to Venice
00:47:01.360 : en:Francesca's Fiance
00:55:19.233 : en:Dealing with Problems
01:03:32.308 : en:Carnevale
01:17:40.531 : en:One Step Closer to Heaven
01:29:06.841 : en:Trial and Escape
01:43:13.687 : en:The Man Who Was Casanova
01:45:56.002 : en:End Credits




General
Unique ID : 239633067953842241376157516276279999192 (0xB447A66E82E4880796C1D3A45F82FAD8)
Complete name : C:\Casanova.2005.BDRip.720p.mkv
Format : Matroska
Format version : Version 2
File size : 5.57 GiB
Duration : 1 h 51 min
Overall bit rate : 7 147 kb/s
Movie name : Casanova.2005.720p.BluRay.x264.DD5.1.Rus.Eng-E76
Encoded date : UTC 2021-12-07 20:34:14
Writing application : mkvmerge v7.8.0 ('River Man') 32bit built on Apr 3 2015 12:11:22
Writing library : libebml v1.3.1 + libmatroska v1.4.2

Video
ID : 1
Format : AVC
Format/Info : Advanced Video Codec
Format profile : High@L4.1
Format settings : CABAC / 10 Ref Frames
Format settings, CABAC : Yes
Format settings, Reference : 10 frames
Codec ID : V_MPEG4/ISO/AVC
Duration : 1 h 51 min
Width : 1 280 pixels
Height : 538 pixels
Display aspect ratio : 2.40:1
Frame rate mode : Constant
Frame rate : 23.976 (24000/1001) FPS
Color space : YUV
Chroma subsampling : 4:2:0
Bit depth : 8 bits
Scan type : Progressive
Writing library : x264 core 129 r2230kMod 1cffe9f
Encoding settings : cabac=1 / ref=10 / deblock=1:-3:-3 / analyse=0x3:0x113 / me=umh / subme=11 / psy=1 / fade_compensate=0.00 / psy_rd=1.00:0.00 / mixed_ref=1 / me_range=48 / chroma_me=1 / trellis=2 / 8x8dct=1 / cqm=0 / deadzone=21,11 / fast_pskip=1 / chroma_qp_offset=-2 / threads=6 / lookahead_threads=1 / sliced_threads=0 / nr=0 / decimate=1 / interlaced=0 / bluray_compat=0 / constrained_intra=0 / bframes=12 / b_pyramid=2 / b_adapt=2 / b_bias=0 / direct=1 / weightb=1 / open_gop=0 / weightp=2 / keyint=240 / keyint_min=23 / scenecut=40 / intra_refresh=0 / rc_lookahead=40 / rc=crf / mbtree=0 / crf=16.0000 / qcomp=0.60 / qpmin=0 / qpmax=69 / qpstep=4 / vbv_maxrate=50000 / vbv_bufsize=62500 / crf_max=0.0 / nal_hrd=none / ip_ratio=1.40 / pb_ratio=1.20 / aq=1:0.80
Language : English
Default : No
Forced : No
Color range : Limited
Matrix coefficients : BT.709

Audio #1
ID : 2
Format : AC-3
Format/Info : Audio Coding 3
Commercial name : Dolby Digital
Codec ID : A_AC3
Duration : 1 h 51 min
Bit rate mode : Constant
Bit rate : 640 kb/s
Channel(s) : 6 channels
Channel layout : L R C LFE Ls Rs
Sampling rate : 48.0 kHz
Frame rate : 31.250 FPS (1536 SPF)
Bit depth : 16 bits
Compression mode : Lossy
Stream size : 511 MiB (9%)
Language : English
Service kind : Complete Main
Default : No
Forced : No

Audio #2
ID : 3
Format : AAC LC SBR
Format/Info : Advanced Audio Codec Low Complexity with Spectral Band Replication
Commercial name : HE-AAC
Format settings : Explicit
Codec ID : A_AAC-2
Duration : 1 h 51 min
Channel(s) : 2 channels
Channel layout : L R
Sampling rate : 48.0 kHz
Frame rate : 23.438 FPS (2048 SPF)
Compression mode : Lossy
Delay relative to video : 31 ms
Title : Commentary
Language : English
Default : No
Forced : No

Text
ID : 4
Format : UTF-8
Codec ID : S_TEXT/UTF8
Codec ID/Info : UTF-8 Plain Text
Language : English
Default : No
Forced : No

Menu
00:00:00.000 : en:Opening Credits / Irresistible
00:07:57.102 : en:Help From Above
00:13:55.710 : en:Marriage Plans
00:19:32.880 : en:Duel at Dawn
00:27:15.509 : en:Secrets and Confessions
00:38:01.154 : en:Visitors to Venice
00:47:01.360 : en:Francesca's Fiance
00:55:19.233 : en:Dealing with Problems
01:03:32.308 : en:Carnevale
01:17:40.531 : en:One Step Closer to Heaven
01:29:06.841 : en:Trial and Escape
01:43:13.687 : en:The Man Who Was Casanova
01:45:56.002 : en:End Credits




General
Unique ID : 217962276338942778270728327534241882863 (0xA3FA01E9DE4AFA47B0082A5B7257A2EF)
Complete name : C:\Casanova.2005.BDRip.1080p.mkv
Format : Matroska
Format version : Version 2
File size : 13.0 GiB
Duration : 1 h 51 min
Overall bit rate : 16.6 Mb/s
Movie name : Casanova.2005.1080p.BluRay.x264.Rus.Eng-E76
Encoded date : UTC 2021-12-07 20:32:34
Writing application : mkvmerge v7.8.0 ('River Man') 32bit built on Apr 3 2015 12:11:22
Writing library : libebml v1.3.1 + libmatroska v1.4.2

Video
ID : 1
Format : AVC
Format/Info : Advanced Video Codec
Format profile : High@L4.1
Format settings : CABAC / 4 Ref Frames
Format settings, CABAC : Yes
Format settings, Reference : 4 frames
Codec ID : V_MPEG4/ISO/AVC
Duration : 1 h 51 min
Bit rate : 14.6 Mb/s
Width : 1 916 pixels
Height : 806 pixels
Display aspect ratio : 2.40:1
Frame rate mode : Constant
Frame rate : 23.976 (24000/1001) FPS
Color space : YUV
Chroma subsampling : 4:2:0
Bit depth : 8 bits
Scan type : Progressive
Bits/(Pixel*Frame) : 0.394
Stream size : 11.4 GiB (88%)
Writing library : x264 core 129 r2230kMod 1cffe9f
Encoding settings : cabac=1 / ref=4 / deblock=1:-3:-3 / analyse=0x3:0x113 / me=umh / subme=11 / psy=1 / fade_compensate=0.00 / psy_rd=1.00:0.00 / mixed_ref=1 / me_range=32 / chroma_me=1 / trellis=2 / 8x8dct=1 / cqm=0 / deadzone=21,11 / fast_pskip=1 / chroma_qp_offset=-2 / threads=6 / lookahead_threads=1 / sliced_threads=0 / nr=0 / decimate=1 / interlaced=0 / bluray_compat=0 / constrained_intra=0 / bframes=8 / b_pyramid=2 / b_adapt=2 / b_bias=0 / direct=1 / weightb=1 / open_gop=0 / weightp=2 / keyint=240 / keyint_min=23 / scenecut=40 / intra_refresh=0 / rc_lookahead=40 / rc=crf / mbtree=0 / crf=18.0000 / qcomp=0.60 / qpmin=0 / qpmax=69 / qpstep=4 / vbv_maxrate=50000 / vbv_bufsize=62500 / crf_max=0.0 / nal_hrd=none / ip_ratio=1.40 / pb_ratio=1.15 / aq=1:0.80
Language : English
Default : No
Forced : No
Color range : Limited
Matrix coefficients : BT.709

Audio #1
ID : 2
Format : DTS
Format/Info : Digital Theater Systems
Codec ID : A_DTS
Duration : 1 h 51 min
Bit rate mode : Constant
Bit rate : 1 509 kb/s
Channel(s) : 6 channels
Channel layout : C L R Ls Rs LFE
Sampling rate : 48.0 kHz
Frame rate : 93.750 FPS (512 SPF)
Bit depth : 16 bits
Compression mode : Lossy
Stream size : 1.18 GiB (9%)
Language : English
Default : No
Forced : No

Audio #2
ID : 3
Format : AC-3
Format/Info : Audio Coding 3
Commercial name : Dolby Digital
Codec ID : A_AC3
Duration : 1 h 51 min
Bit rate mode : Constant
Bit rate : 192 kb/s
Channel(s) : 2 channels
Channel layout : L R
Sampling rate : 48.0 kHz
Frame rate : 31.250 FPS (1536 SPF)
Bit depth : 16 bits
Compression mode : Lossy
Stream size : 153 MiB (1%)
Title : Commentary
Language : English
Service kind : Complete Main
Default : No
Forced : No

Text
ID : 4
Format : UTF-8
Codec ID : S_TEXT/UTF8
Codec ID/Info : UTF-8 Plain Text
Language : English
Default : No
Forced : No

Menu
00:00:00.000 : en:Opening Credits / Irresistible
00:07:57.102 : en:Help From Above
00:13:55.710 : en:Marriage Plans
00:19:32.880 : en:Duel at Dawn
00:27:15.509 : en:Secrets and Confessions
00:38:01.154 : en:Visitors to Venice
00:47:01.360 : en:Francesca's Fiance
00:55:19.233 : en:Dealing with Problems
01:03:32.308 : en:Carnevale
01:17:40.531 : en:One Step Closer to Heaven
01:29:06.841 : en:Trial and Escape
01:43:13.687 : en:The Man Who Was Casanova
01:45:56.002 : en:End Credits





Screenshots BRRip

Casanova (2005)


Screenshots BDRip 720p

Casanova (2005)


Screenshots BDRip 1080p

Casanova (2005)